Скачать через торрент музыку Три орешка для золушки Drei Haselnüsse fur Aschenbrödel бесплатно без регистрации torrent

Если у вас наблюдаются проблемы со скриншотами, переходом по ссылками, скачиванием торрентов - проблемы в блокировщике рекламы AdBlock. #хорошегоДня!


Статистика раздачи
Размер:  160 MB   |    Зарегистрирован:  1 год 9 месяцев   |    .torrent скачан:  30 раз   |   
Раздают:  1  
   
Загрузка...
 
Автор Сообщение

Galfimbul

avatar Galfimbul


Три орешка для золушки / Drei Haselnüsse für Aschenbrödel
Жанр: Score
Композитор: Karel Svoboda
Год выпуска диска: 2003
Год выпуска фильма: 1973
Страна-производитель диска: Czech Republic
Издатель (лейбл): Supraphon
Номер по каталогу: SU 5474-2 301
Аудио кодек: FLAC (*.flac)
Тип рипа: tracks+.cue
Битрейт аудио: lossless
Продолжительность: 00:42:27
Источник: собственный рип
Наличие сканов в содержимом раздачи: да, 600dpi
Ссылки: Кинопоиск | IMDB | Wikipedia | SoundtrackCollector
MP3: [url=...3319461](Score) Три орешка для золушки / Drei Haselnüsse für Aschenbrödel (by Karel Svoboda) - 2003, MP3 (tracks), 320 kbps[/url]
01. Drei Haselnüsse für Aschenbrödel (Motiv I, Einleitung) [0:04:37.67]
02. Die Stiefmutter (Asche und Erbsen) [0:00:50.53]
03. Die hilfreichen Täubchen I [0:01:57.50]
04. Aschenbrödel und Nikolaus (Motiv D, Ankunft des Könisgpaars und seiner Begleiter) [0:04:10.27]
05. Die Jagd auf das Aschenbrödel I [0:02:00.65]
06. Die Jagd auf das Aschenbrödel II [0:01:10.10]
07. Abfahrt des Königspaars und seiner Begleiter [0:02:49.43]
08. Aschenbrödels schweres Schicksal I (Motiv I) [0:00:25.50]
09. Motiv des Präzeptors und der Tanzstunde [0:01:02.30]
10. Vincek und die drei Haselnüsse [0:00:44.65]
11. Der Zauber der Haselnüsse (Motive I & II) [0:01:47.17]
12. Aschenbrödel als Jäger (Motiv II) [0:01:48.23]
13. Der beste Schütze (Motiv II) [0:00:38.57]
14. Die Jagd auf das Aschenbrödel III [0:00:26.18]
15. Aschenbrödels schweres Schicksal II (Motiv I, Erbsen und Linsen) [0:01:00.67]
16. Die hilfreichen Täubchen II (Die zweite Haselnuss) [0:01:27.53]
17. Der königliche Ball [0:03:40.17]
18. Aschenbrödels Tanz mit dem Prinzen (Motiv I) [0:03:43.10]
19. Aschenbrödel flieht vom Ball (Motiv II) [0:01:37.03]
20. Verrat, Verfolgung und Strafe [0:02:19.00]
21. Finale I (Es gibt eine Hochzeit!) (Motiv I) [0:01:30.67]
22. Finale II (Motiv II) [0:02:38.28]
Exact Audio Copy V0.99 prebeta 5 from 4. May 2009

EAC extraction logfile from 15. December 2010, 23:12

Karel Svoboda / Drei Haselnuesse fuer Aschenbroedel

Used drive : HL-DT-STDVDRAM_GSA-T20N Adapter: 0 ID: 0

Read mode : SecureUtilize accurate stream : YesDefeat audio cache : YesMake use of C2 pointers : No

Read offset correction : 667Overread into Lead-In and Lead-Out : NoFill up missing offset samples with silence : YesDelete leading and trailing silent blocks : NoNull samples used in CRC calculations : YesUsed interface : Native Win32 interface for Win NT & 2000Gap handling : Appended to previous track

Used output format : User Defined EncoderSelected bitrate : 1024 kBit/sQuality : HighAdd ID3 tag : NoCommand line compressor : C:\Program Files\Exact Audio Copy\Flac\flac.exeAdditional command line options : -V -8 -T "artist=%a" -T "title=%t" -T "album=%g" -T "date=%y" -T "tracknumber=%n" -T "genre=%m" %s

TOC of the extracted CD

Track | Start | Length | Start sector | End sector --------------------------------------------------------- 1 | 0:00.00 | 4:37.67 | 0 | 20841 2 | 4:37.67 | 0:50.53 | 20842 | 24644 3 | 5:28.45 | 1:57.50 | 24645 | 33469 4 | 7:26.20 | 4:10.27 | 33470 | 52246 5 | 11:36.47 | 2:00.65 | 52247 | 61311 6 | 13:37.37 | 1:10.10 | 61312 | 66571 7 | 14:47.47 | 2:49.43 | 66572 | 79289 8 | 17:37.15 | 0:25.50 | 79290 | 81214 9 | 18:02.65 | 1:02.30 | 81215 | 85894 10 | 19:05.20 | 0:44.65 | 85895 | 89259 11 | 19:50.10 | 1:47.17 | 89260 | 97301 12 | 21:37.27 | 1:48.23 | 97302 | 105424 13 | 23:25.50 | 0:38.57 | 105425 | 108331 14 | 24:04.32 | 0:26.18 | 108332 | 110299 15 | 24:30.50 | 1:00.67 | 110300 | 114866 16 | 25:31.42 | 1:27.53 | 114867 | 121444 17 | 26:59.20 | 3:40.17 | 121445 | 137961 18 | 30:39.37 | 3:43.10 | 137962 | 154696 19 | 34:22.47 | 1:37.03 | 154697 | 161974 20 | 35:59.50 | 2:19.00 | 161975 | 172399 21 | 38:18.50 | 1:30.67 | 172400 | 179216 22 | 39:49.42 | 2:38.28 | 179217 | 191094

Track 1

Filename C:\Music\01 - Drei Haselnuesse fuer Aschenbroedel (Motiv I, Einleitung).wav

Pre-gap length 0:00:02.00

Peak level 95.5 % Track quality 100.0 % Test CRC D1FAF6B5 Copy CRC D1FAF6B5 Accurately ripped (confidence 19) [B07DB2E9] Copy OK

Track 2

Filename C:\Music\02 - Die Stiefmutter (Asche und Erbsen).wav

Pre-gap length 0:00:01.42

Peak level 73.3 % Track quality 100.0 % Test CRC 08354F95 Copy CRC 08354F95 Accurately ripped (confidence 19) [71F2BFA6] Copy OK

Track 3

Filename C:\Music\03 - Die hilfreichen Taeubchen I.wav

Pre-gap length 0:00:01.43

Peak level 75.9 % Track quality 100.0 % Test CRC E62A6B0E Copy CRC E62A6B0E Accurately ripped (confidence 19) [33C0BABD] Copy OK

Track 4

Filename C:\Music\04 - Aschenbroedel und Nikolaus (Motiv D, Ankunft des Koenisgpaars und seiner Begleiter).wav

Pre-gap length 0:00:01.43

Peak level 98.8 % Track quality 99.9 % Test CRC 5DC958D6 Copy CRC 5DC958D6 Accurately ripped (confidence 19) [3A2B74D2] Copy OK

Track 5

Filename C:\Music\05 - Die Jagd auf das Aschenbroedel I.wav

Pre-gap length 0:00:01.42

Peak level 83.1 % Track quality 99.9 % Test CRC 203BF977 Copy CRC 203BF977 Accurately ripped (confidence 19) [5423736F] Copy OK

Track 6

Filename C:\Music\06 - Die Jagd auf das Aschenbroedel II.wav

Pre-gap length 0:00:01.42

Peak level 80.3 % Track quality 100.0 % Test CRC 4A49F632 Copy CRC 4A49F632 Accurately ripped (confidence 18) [B19B53F9] Copy OK

Track 7

Filename C:\Music\07 - Abfahrt des Koenigspaars und seiner Begleiter.wav

Pre-gap length 0:00:01.42

Peak level 92.2 % Track quality 100.0 % Test CRC 608625DB Copy CRC 608625DB Accurately ripped (confidence 18) [1EE7F93B] Copy OK

Track 8

Filename C:\Music\08 - Aschenbroedels schweres Schicksal I (Motiv I).wav

Pre-gap length 0:00:01.43

Peak level 58.2 % Track quality 100.0 % Test CRC E1EA1285 Copy CRC E1EA1285 Accurately ripped (confidence 18) [8230B403] Copy OK

Track 9

Filename C:\Music\09 - Motiv des Praezeptors und der Tanzstunde.wav

Pre-gap length 0:00:01.43

Peak level 84.9 % Track quality 100.0 % Test CRC DA21D2A1 Copy CRC DA21D2A1 Accurately ripped (confidence 18) [4B809546] Copy OK

Track 10

Filename C:\Music\10 - Vincek und die drei Haselnuesse.wav

Pre-gap length 0:00:01.43

Peak level 71.8 % Track quality 100.0 % Test CRC 221EC216 Copy CRC 221EC216 Accurately ripped (confidence 18) [978F7C0D] Copy OK

Track 11

Filename C:\Music\11 - Der Zauber der Haselnuesse (Motive I & II).wav

Pre-gap length 0:00:01.43

Peak level 73.7 % Track quality 99.9 % Test CRC AA063593 Copy CRC AA063593 Accurately ripped (confidence 18) [12F6217F] Copy OK

Track 12

Filename C:\Music\12 - Aschenbroedel als Jaeger (Motiv II).wav

Pre-gap length 0:00:01.42

Peak level 98.8 % Track quality 100.0 % Test CRC 542427E4 Copy CRC 542427E4 Accurately ripped (confidence 18) [BCEB106A] Copy OK

Track 13

Filename C:\Music\13 - Der beste Schuetze (Motiv II).wav

Pre-gap length 0:00:01.43

Peak level 88.1 % Track quality 100.0 % Test CRC 544A4549 Copy CRC 544A4549 Accurately ripped (confidence 18) [682A8887] Copy OK

Track 14

Filename C:\Music\14 - Die Jagd auf das Aschenbroedel III.wav

Pre-gap length 0:00:01.42

Peak level 95.2 % Track quality 99.5 % Test CRC B9143E1E Copy CRC B9143E1E Accurately ripped (confidence 18) [32A555A1] Copy OK

Track 15

Filename C:\Music\15 - Aschenbroedels schweres Schicksal II (Motiv I, Erbsen und Linsen).wav

Pre-gap length 0:00:01.43

Peak level 71.3 % Track quality 100.0 % Test CRC A596A738 Copy CRC A596A738 Accurately ripped (confidence 18) [AEC34E7A] Copy OK

Track 16

Filename C:\Music\16 - Die hilfreichen Taeubchen II (Die zweite Haselnuss).wav

Pre-gap length 0:00:01.42

Peak level 78.7 % Track quality 100.0 % Test CRC A3390031 Copy CRC A3390031 Accurately ripped (confidence 18) [E854C464] Copy OK

Track 17

Filename C:\Music\17 - Der koenigliche Ball.wav

Pre-gap length 0:00:01.43

Peak level 97.7 % Track quality 100.0 % Test CRC 057DB580 Copy CRC 057DB580 Accurately ripped (confidence 18) [27287479] Copy OK

Track 18

Filename C:\Music\18 - Aschenbroedels Tanz mit dem Prinzen (Motiv I).wav

Peak level 90.1 % Track quality 99.9 % Test CRC 05DCAB18 Copy CRC 05DCAB18 Accurately ripped (confidence 18) [FA59476D] Copy OK

Track 19

Filename C:\Music\19 - Aschenbroedel flieht vom Ball (Motiv II).wav

Pre-gap length 0:00:01.42

Peak level 98.8 % Track quality 100.0 % Test CRC 7FD48EE3 Copy CRC 7FD48EE3 Accurately ripped (confidence 18) [BD015941] Copy OK

Track 20

Filename C:\Music\20 - Verrat, Verfolgung und Strafe.wav

Pre-gap length 0:00:01.43

Peak level 98.8 % Track quality 100.0 % Test CRC 6C5882F6 Copy CRC 6C5882F6 Accurately ripped (confidence 18) [9AA8ECA8] Copy OK

Track 21

Filename C:\Music\21 - Finale I (Es gibt eine Hochzeit!) (Motiv I).wav

Pre-gap length 0:00:01.43

Peak level 96.3 % Track quality 100.0 % Test CRC DEB186F0 Copy CRC DEB186F0 Accurately ripped (confidence 18) [F37E5B70] Copy OK

Track 22

Filename C:\Music\22 - Finale II (Motiv II).wav

Pre-gap length 0:00:01.42

Peak level 97.1 % Track quality 100.0 % Test CRC 75B51509 Copy CRC 75B51509 Accurately ripped (confidence 18) [F1D742E9] Copy OK

All tracks accurately ripped

No errors occurred

End of status report
REM GENRE ScoreREM DATE 2003REM DISCID 2F09F316REM COMMENT "ExactAudioCopy v0.99pb5"PERFORMER "Karel Svoboda"TITLE "Drei Haselnuesse fuer Aschenbroedel"FILE "01 - Drei Haselnuesse fuer Aschenbroedel (Motiv I, Einleitung).wav" WAVE TRACK 01 AUDIO TITLE "Drei Haselnuesse fuer Aschenbroedel (Motiv I, Einleitung)" PERFORMER "Karel Svoboda" INDEX 01 00:00:00 TRACK 02 AUDIO TITLE "Die Stiefmutter (Asche und Erbsen)" PERFORMER "Karel Svoboda" INDEX 00 04:36:25FILE "02 - Die Stiefmutter (Asche und Erbsen).wav" WAVE INDEX 01 00:00:00 TRACK 03 AUDIO TITLE "Die hilfreichen Taeubchen I" PERFORMER "Karel Svoboda" INDEX 00 00:49:10FILE "03 - Die hilfreichen Taeubchen I.wav" WAVE INDEX 01 00:00:00 TRACK 04 AUDIO TITLE "Aschenbroedel und Nikolaus (Motiv D, Ankunft des Koenisgpaars und seiner Begl..." PERFORMER "Karel Svoboda" INDEX 00 01:56:07FILE "04 - Aschenbroedel und Nikolaus (Motiv D, Ankunft des Koenisgpaars und seiner Begleiter).wav" WAVE INDEX 01 00:00:00 TRACK 05 AUDIO TITLE "Die Jagd auf das Aschenbroedel I" PERFORMER "Karel Svoboda" INDEX 00 04:08:60FILE "05 - Die Jagd auf das Aschenbroedel I.wav" WAVE INDEX 01 00:00:00 TRACK 06 AUDIO TITLE "Die Jagd auf das Aschenbroedel II" PERFORMER "Karel Svoboda" INDEX 00 01:59:23FILE "06 - Die Jagd auf das Aschenbroedel II.wav" WAVE INDEX 01 00:00:00 TRACK 07 AUDIO TITLE "Abfahrt des Koenigspaars und seiner Begleiter" PERFORMER "Karel Svoboda" INDEX 00 01:08:43FILE "07 - Abfahrt des Koenigspaars und seiner Begleiter.wav" WAVE INDEX 01 00:00:00 TRACK 08 AUDIO TITLE "Aschenbroedels schweres Schicksal I (Motiv I)" PERFORMER "Karel Svoboda" INDEX 00 02:48:00FILE "08 - Aschenbroedels schweres Schicksal I (Motiv I).wav" WAVE INDEX 01 00:00:00 TRACK 09 AUDIO TITLE "Motiv des Praezeptors und der Tanzstunde" PERFORMER "Karel Svoboda" INDEX 00 00:24:07FILE "09 - Motiv des Praezeptors und der Tanzstunde.wav" WAVE INDEX 01 00:00:00 TRACK 10 AUDIO TITLE "Vincek und die drei Haselnuesse" PERFORMER "Karel Svoboda" INDEX 00 01:00:62FILE "10 - Vincek und die drei Haselnuesse.wav" WAVE INDEX 01 00:00:00 TRACK 11 AUDIO TITLE "Der Zauber der Haselnuesse (Motive I & II)" PERFORMER "Karel Svoboda" INDEX 00 00:43:22FILE "11 - Der Zauber der Haselnuesse (Motive I & II).wav" WAVE INDEX 01 00:00:00 TRACK 12 AUDIO TITLE "Aschenbroedel als Jaeger (Motiv II)" PERFORMER "Karel Svoboda" INDEX 00 01:45:50FILE "12 - Aschenbroedel als Jaeger (Motiv II).wav" WAVE INDEX 01 00:00:00 TRACK 13 AUDIO TITLE "Der beste Schuetze (Motiv II)" PERFORMER "Karel Svoboda" INDEX 00 01:46:55FILE "13 - Der beste Schuetze (Motiv II).wav" WAVE INDEX 01 00:00:00 TRACK 14 AUDIO TITLE "Die Jagd auf das Aschenbroedel III" PERFORMER "Karel Svoboda" INDEX 00 00:37:15FILE "14 - Die Jagd auf das Aschenbroedel III.wav" WAVE INDEX 01 00:00:00 TRACK 15 AUDIO TITLE "Aschenbroedels schweres Schicksal II (Motiv I, Erbsen und Linsen)" PERFORMER "Karel Svoboda" INDEX 00 00:24:50FILE "15 - Aschenbroedels schweres Schicksal II (Motiv I, Erbsen und Linsen).wav" WAVE INDEX 01 00:00:00 TRACK 16 AUDIO TITLE "Die hilfreichen Taeubchen II (Die zweite Haselnuss)" PERFORMER "Karel Svoboda" INDEX 00 00:59:25FILE "16 - Die hilfreichen Taeubchen II (Die zweite Haselnuss).wav" WAVE INDEX 01 00:00:00 TRACK 17 AUDIO TITLE "Der koenigliche Ball" PERFORMER "Karel Svoboda" INDEX 00 01:26:10FILE "17 - Der koenigliche Ball.wav" WAVE INDEX 01 00:00:00FILE "18 - Aschenbroedels Tanz mit dem Prinzen (Motiv I).wav" WAVE TRACK 18 AUDIO TITLE "Aschenbroedels Tanz mit dem Prinzen (Motiv I)" PERFORMER "Karel Svoboda" INDEX 01 00:00:00 TRACK 19 AUDIO TITLE "Aschenbroedel flieht vom Ball (Motiv II)" PERFORMER "Karel Svoboda" INDEX 00 03:41:43FILE "19 - Aschenbroedel flieht vom Ball (Motiv II).wav" WAVE INDEX 01 00:00:00 TRACK 20 AUDIO TITLE "Verrat, Verfolgung und Strafe" PERFORMER "Karel Svoboda" INDEX 00 01:35:35FILE "20 - Verrat, Verfolgung und Strafe.wav" WAVE INDEX 01 00:00:00 TRACK 21 AUDIO TITLE "Finale I (Es gibt eine Hochzeit!) (Motiv I)" PERFORMER "Karel Svoboda" INDEX 00 02:17:32FILE "21 - Finale I (Es gibt eine Hochzeit!) (Motiv I).wav" WAVE INDEX 01 00:00:00 TRACK 22 AUDIO TITLE "Finale II (Motiv II)" PERFORMER "Karel Svoboda" INDEX 00 01:29:25FILE "22 - Finale II (Motiv II).wav" WAVE INDEX 01 00:00:00
[CUETools log; Date: 16.12.2015 23:16:13; Version: 2.1.5][CTDB TOCID: 47A9OJWos66H.QL5tCsI_dCngyc-] found.Track | CTDB Status 1 | (47/48) Accurately ripped 2 | (46/48) Accurately ripped 3 | (46/48) Accurately ripped 4 | (47/48) Accurately ripped 5 | (46/48) Accurately ripped 6 | (46/48) Accurately ripped 7 | (47/48) Accurately ripped 8 | (46/48) Accurately ripped 9 | (46/48) Accurately ripped 10 | (46/48) Accurately ripped 11 | (46/48) Accurately ripped 12 | (47/48) Accurately ripped 13 | (47/48) Accurately ripped 14 | (47/48) Accurately ripped 15 | (46/48) Accurately ripped 16 | (46/48) Accurately ripped 17 | (46/48) Accurately ripped 18 | (46/48) Accurately ripped 19 | (46/48) Accurately ripped 20 | (47/48) Accurately ripped 21 | (47/48) Accurately ripped 22 | (47/48) Accurately ripped[AccurateRip ID: 00225425-0212be6c-2f09f316] found.Track [ CRC | V2 ] Status 01 [b07db2e9|79551784] (29+17/50) Accurately ripped 02 [71f2bfa6|7ed8b96e] (29+17/50) Accurately ripped 03 [33c0babd|51ea3d7f] (29+17/50) Accurately ripped 04 [3a2b74d2|8f2d1eb9] (29+17/50) Accurately ripped 05 [5423736f|8dbed6d9] (29+17/50) Accurately ripped 06 [b19b53f9|5180b826] (28+17/49) Accurately ripped 07 [1ee7f93b|ac6e3f73] (28+17/49) Accurately ripped 08 [8230b403|93774f0a] (28+17/49) Accurately ripped 09 [4b809546|d5d4670f] (28+17/49) Accurately ripped 10 [978f7c0d|19713fbe] (28+17/49) Accurately ripped 11 [12f6217f|575ef22c] (28+17/49) Accurately ripped 12 [bceb106a|b71fc225] (28+17/49) Accurately ripped 13 [682a8887|f5bcf25a] (28+17/49) Accurately ripped 14 [32a555a1|5fb60957] (28+17/49) Accurately ripped 15 [aec34e7a|d323cc27] (28+17/49) Accurately ripped 16 [e854c464|47a97a78] (28+17/49) Accurately ripped 17 [27287479|5e7c633c] (28+16/48) Accurately ripped 18 [fa59476d|9f08eeed] (28+17/49) Accurately ripped 19 [bd015941|7e96133b] (28+17/49) Accurately ripped 20 [9aa8eca8|2afec509] (28+17/49) Accurately ripped 21 [f37e5b70|617bb542] (28+17/49) Accurately ripped 22 [f1d742e9|fa7b3b89] (28+15/47) Accurately rippedOffsetted by -66: 01 [e943d83b] (00/50) No match (V2 was not tested) 02 [82d2adde] (00/50) No match (V2 was not tested) 03 [ff36c3a7] (00/50) No match (V2 was not tested) 04 [2c516442] (00/50) No match (V2 was not tested) 05 [3ee93a93] (00/50) No match (V2 was not tested) 06 [4e731e17] (00/49) No match (V2 was not tested) 07 [90ece401] (00/49) No match (V2 was not tested) 08 [1a6d3a99] (00/49) No match (V2 was not tested) 09 [b5ea0b54] (00/49) No match (V2 was not tested) 10 [7806ae61] (00/49) No match (V2 was not tested) 11 [43d0a6e3] (00/49) No match (V2 was not tested) 12 [f81b6bb0] (00/49) No match (V2 was not tested) 13 [1bc2fbc7] (00/49) No match (V2 was not tested) 14 [10b25f91] (00/49) No match (V2 was not tested) 15 [2a7970e6] (00/49) No match (V2 was not tested) 16 [78bfd8ac] (00/49) No match (V2 was not tested) 17 [76c6b34a] (00/48) No match (V2 was not tested) 18 [6164a988] (00/49) No match (V2 was not tested) 19 [610c4a27] (00/49) No match (V2 was not tested) 20 [3b2bb7e6] (00/49) No match (V2 was not tested) 21 [0b50b4e2] (00/49) No match (V2 was not tested) 22 [e1867933] (00/47) No match (V2 was not tested)Offsetted by -42: 01 [d49eb363] (00/50) No match (V2 was not tested) 02 [36de573e] (00/50) No match (V2 was not tested) 03 [fb0bd7af] (00/50) No match (V2 was not tested) 04 [772c5302] (00/50) No match (V2 was not tested) 05 [00cfdae3] (00/50) No match (V2 was not tested) 06 [b85331af] (00/49) No match (V2 was not tested) 07 [5030ebb9] (00/49) No match (V2 was not tested) 08 [4028ac91] (00/49) No match (V2 was not tested) 09 [1adaf7ac] (00/49) No match (V2 was not tested) 10 [9ac41071] (00/49) No match (V2 was not tested) 11 [bdafbc33] (00/49) No match (V2 was not tested) 12 [2866ed68] (00/49) No match (V2 was not tested) 13 [c32e74c7] (00/49) No match (V2 was not tested) 14 [9167d051] (00/49) No match (V2 was not tested) 15 [e63735d6] (00/49) No match (V2 was not tested) 16 [443bd14c] (00/49) No match (V2 was not tested) 17 [02376515] (00/48) No match (V2 was not tested) 18 [c52db1e1] (00/49) No match (V2 was not tested) 19 [3cab385f] (00/49) No match (V2 was not tested) 20 [18136dfe] (00/49) No match (V2 was not tested) 21 [eb614e8a] (00/49) No match (V2 was not tested) 22 [d02f7cbb] (00/47) No match (V2 was not tested)

Track Peak [ CRC32 ] [W/O NULL] [ LOG ] -- 98,8 [434367C9] [B59C946F] 01 95,5 [D1FAF6B5] [47936562] CRC32 02 73,3 [08354F95] [CA568617] CRC32 03 75,9 [E62A6B0E] [97E5DBD9] CRC32 04 98,8 [5DC958D6] [28DB0BF5] CRC32 05 83,1 [203BF977] [D34EABC6] CRC32 06 80,3 [4A49F632] [ADFB301C] CRC32 07 92,2 [608625DB] [E6AD34A7] CRC32 08 58,2 [E1EA1285] [5B3C5DF6] CRC32 09 84,9 [DA21D2A1] [789D22D5] CRC32 10 71,8 [221EC216] [83140C7C] CRC32 11 73,7 [AA063593] [476BF68A] CRC32 12 98,8 [542427E4] [C6E1724B] CRC32 13 88,1 [544A4549] [5835B948] CRC32 14 95,2 [B9143E1E] [E069ABBA] CRC32 15 71,3 [A596A738] [7DDE5754] CRC32 16 78,7 [A3390031] [7B2D510F] CRC32 17 97,7 [057DB580] [91993D90] CRC32 18 90,1 [05DCAB18] [BEA6D4B4] CRC32 19 98,8 [7FD48EE3] [F2C12931] CRC32 20 98,8 [6C5882F6] [D405781D] CRC32 21 96,3 [DEB186F0] [DAFF52EF] CRC32 22 97,1 [75B51509] [2E4E0DCD] CRC32


Трекер:  [ 16-Дек-2015 23:30 ]

  

Скачать .torrent

Размер .torrent файла 15 KB


Размер: 160 MB
Хэш (hash) релиза: 3aeef2b6757a0064cf893cfd9d7548e90b130f2b

Еще никто не оставлял запись к записи скачать торрент Три орешка для золушки Drei Haselnüsse fur Aschenbrödel . Будь первым!

!Обратная связь