Скачать через торрент музыку SuperПерцы Superbad бесплатно без регистрации torrent

Если у вас наблюдаются проблемы со скриншотами, переходом по ссылками, скачиванием торрентов - проблемы в блокировщике рекламы AdBlock. #хорошегоДня!


Статистика раздачи
Размер:  373 MB   |    Зарегистрирован:  1 год 9 месяцев   |    .torrent скачан:  16 раз   |   
Раздают:  1  
   
Загрузка...
 
Автор Сообщение

Galfimbul

avatar Galfimbul


SuperПерцы / Superbad
Жанр: Score / Soundtrack
Композитор: Lyle Workman
Год выпуска диска: 2007
Страна-производитель диска: USA
Издатель (лейбл): Lakeshore Records LLC
Номер по каталогу: LKS 339432
Аудио кодек: FLAC (*.flac)
Тип рипа: tracks+.cue
Битрейт аудио: lossless
Продолжительность: 52:55
Источник: собственный рип
Наличие сканов в содержимом раздачи: да, 600dpi
Ссылки: Кинопоиск | IMDB | Wikipedia | SoundtrackCollector
MP3: [url=...3357397](Score / Soundtrack) SuperПерцы / Superbad (by Lyle Workman & VA) - 2007, MP3 (tracks), 320 kbps[/url]
01. Lyle Workman / Super What? [0:04:06.21]
02. The Bar-Kays / Too Hot To Stop [0:03:28.73]
03. Lyle Workman / Seth Pulls Into Lot [0:02:38.55]
04. Lyle Workman / Cops See Fogel's ID / Seth Saves Evan [0:01:46.39]
05. Jean Knight / Do Me [0:02:51.32]
06. Lyle Workman / Flashback Party Weekend [0:03:30.46]
07. Curtis Mayfield / P.S. I Love You [0:03:56.57]
08. Lyle Workman / Evan Runs [0:01:47.41]
09. Lyle Workman / Sleeping Bags [0:03:26.06]
10. Lyle Workman / Like A Pimp [0:02:05.02]
11. The Roots / Here I Come [0:04:12.11]
12. Lyle Workman / Seth Runs On Track [0:01:09.67]
13. Rick James / Bustin' Out [0:05:20.11]
14. Lyle Workman / Evan's Basement Jam [0:03:33.33]
15. Sergio Mendes / Roda [0:02:24.70]
16. Lyle Workman / Goldslick / Seth Fantasy [0:00:54.44]
17. The Bar-Kays / Soulfinger [0:02:19.64]
18. Lyle Workman / Funk McLovin [0:03:22.58]
Exact Audio Copy V0.99 prebeta 5 from 4. May 2009

EAC extraction logfile from 7. January 2011, 10:17

Various Artists / Superbad

Used drive : HL-DT-STDVDRAM_GSA-T20N Adapter: 0 ID: 0

Read mode : SecureUtilize accurate stream : YesDefeat audio cache : YesMake use of C2 pointers : No

Read offset correction : 667Overread into Lead-In and Lead-Out : NoFill up missing offset samples with silence : YesDelete leading and trailing silent blocks : NoNull samples used in CRC calculations : YesUsed interface : Native Win32 interface for Win NT & 2000Gap handling : Appended to previous track

Used output format : User Defined EncoderSelected bitrate : 1024 kBit/sQuality : HighAdd ID3 tag : NoCommand line compressor : C:\Program Files\Exact Audio Copy\Flac\flac.exeAdditional command line options : -V -8 -T "artist=%a" -T "title=%t" -T "album=%g" -T "date=%y" -T "tracknumber=%n" -T "genre=%m" %s

TOC of the extracted CD

Track | Start | Length | Start sector | End sector --------------------------------------------------------- 1 | 0:00.00 | 4:06.21 | 0 | 18470 2 | 4:06.21 | 3:28.73 | 18471 | 34143 3 | 7:35.19 | 2:38.55 | 34144 | 46048 4 | 10:13.74 | 1:46.39 | 46049 | 54037 5 | 12:00.38 | 2:51.32 | 54038 | 66894 6 | 14:51.70 | 3:30.46 | 66895 | 82690 7 | 18:22.41 | 3:56.57 | 82691 | 100447 8 | 22:19.23 | 1:47.41 | 100448 | 108513 9 | 24:06.64 | 3:26.06 | 108514 | 123969 10 | 27:32.70 | 2:05.02 | 123970 | 133346 11 | 29:37.72 | 4:12.11 | 133347 | 152257 12 | 33:50.08 | 1:09.67 | 152258 | 157499 13 | 35:00.00 | 5:20.11 | 157500 | 181510 14 | 40:20.11 | 3:33.33 | 181511 | 197518 15 | 43:53.44 | 2:24.70 | 197519 | 208388 16 | 46:18.39 | 0:54.44 | 208389 | 212482 17 | 47:13.08 | 2:19.64 | 212483 | 222971 18 | 49:32.72 | 3:22.58 | 222972 | 238179

Track 1

Filename C:\Music\01 - Lyle Workman - Super What .wav

Pre-gap length 0:00:02.00

Peak level 97.7 % Track quality 100.0 % Test CRC ED6839EC Copy CRC ED6839EC Accurately ripped (confidence 3) [8622720B] Copy OK

Track 2

Filename C:\Music\02 - The Bar-Kays - Too Hot To Stop.wav

Peak level 97.7 % Track quality 100.0 % Test CRC F58540D2 Copy CRC F58540D2 Accurately ripped (confidence 3) [C04BA73B] Copy OK

Track 3

Filename C:\Music\03 - Lyle Workman - Seth Pulls Into Lot.wav

Peak level 97.7 % Track quality 99.9 % Test CRC 93EA79BE Copy CRC 93EA79BE Accurately ripped (confidence 3) [4075C60D] Copy OK

Track 4

Filename C:\Music\04 - Lyle Workman - Cops See Fogel's ID - Seth Saves Evan.wav

Peak level 100.0 % Track quality 100.0 % Test CRC AC3D868B Copy CRC AC3D868B Accurately ripped (confidence 3) [0D392575] Copy OK

Track 5

Filename C:\Music\05 - Jean Knight - Do Me.wav

Peak level 97.7 % Track quality 100.0 % Test CRC A6CC8A59 Copy CRC A6CC8A59 Accurately ripped (confidence 3) [3709209F] Copy OK

Track 6

Filename C:\Music\06 - Lyle Workman - Flashback Party Weekend.wav

Peak level 97.7 % Track quality 100.0 % Test CRC 0DE57539 Copy CRC 0DE57539 Accurately ripped (confidence 3) [547DD880] Copy OK

Track 7

Filename C:\Music\07 - Curtis Mayfield - P.S. I Love You.wav

Peak level 97.7 % Track quality 99.9 % Test CRC 83933A5D Copy CRC 83933A5D Accurately ripped (confidence 3) [956F9081] Copy OK

Track 8

Filename C:\Music\08 - Lyle Workman - Evan Runs.wav

Peak level 97.7 % Track quality 100.0 % Test CRC 6778AB37 Copy CRC 6778AB37 Accurately ripped (confidence 3) [31EB7062] Copy OK

Track 9

Filename C:\Music\09 - Lyle Workman - Sleeping Bags.wav

Peak level 98.8 % Track quality 100.0 % Test CRC 60B12DCF Copy CRC 60B12DCF Accurately ripped (confidence 3) [3CB18EA0] Copy OK

Track 10

Filename C:\Music\10 - Lyle Workman - Like A Pimp.wav

Pre-gap length 0:00:02.02

Peak level 87.0 % Track quality 100.0 % Test CRC 3E8601F9 Copy CRC 3E8601F9 Accurately ripped (confidence 3) [570DF861] Copy OK

Track 11

Filename C:\Music\11 - The Roots - Here I Come.wav

Peak level 96.6 % Track quality 100.0 % Test CRC 0FFD0166 Copy CRC 0FFD0166 Accurately ripped (confidence 3) [754BD6FE] Copy OK

Track 12

Filename C:\Music\12 - Lyle Workman - Seth Runs On Track.wav

Peak level 95.5 % Track quality 100.0 % Test CRC A7EDCE16 Copy CRC A7EDCE16 Accurately ripped (confidence 3) [D33810F3] Copy OK

Track 13

Filename C:\Music\13 - Rick James - Bustin' Out.wav

Peak level 95.5 % Track quality 100.0 % Test CRC D91F934C Copy CRC D91F934C Accurately ripped (confidence 3) [E7074A3D] Copy OK

Track 14

Filename C:\Music\14 - Lyle Workman - Evan's Basement Jam.wav

Peak level 95.5 % Track quality 100.0 % Test CRC 279F0112 Copy CRC 279F0112 Accurately ripped (confidence 3) [E4F7F084] Copy OK

Track 15

Filename C:\Music\15 - Sergio Mendes - Roda.wav

Peak level 97.7 % Track quality 100.0 % Test CRC 74659E0A Copy CRC 74659E0A Accurately ripped (confidence 3) [1CECA868] Copy OK

Track 16

Filename C:\Music\16 - Lyle Workman - Goldslick - Seth Fantasy.wav

Peak level 97.7 % Track quality 100.0 % Test CRC AA0B28C4 Copy CRC AA0B28C4 Accurately ripped (confidence 3) [811D7279] Copy OK

Track 17

Filename C:\Music\17 - The Bar-Kays - Soulfinger.wav

Peak level 97.7 % Track quality 100.0 % Test CRC 91F29BBE Copy CRC 91F29BBE Accurately ripped (confidence 3) [FE9C3686] Copy OK

Track 18

Filename C:\Music\18 - Lyle Workman - Funk McLovin.wav

Peak level 100.0 % Track quality 100.0 % Test CRC 2D07EC43 Copy CRC 2D07EC43 Accurately ripped (confidence 3) [80E13549] Copy OK

All tracks accurately ripped

No errors occurred

End of status report
REM GENRE SoundtrackREM DATE 2007REM DISCID F20C6712REM COMMENT "ExactAudioCopy v0.99pb5"PERFORMER "Various Artists"TITLE "Superbad"FILE "01 - Lyle Workman - Super What .wav" WAVE TRACK 01 AUDIO TITLE "Super What?" PERFORMER "Lyle Workman" INDEX 01 00:00:00FILE "02 - The Bar-Kays - Too Hot To Stop.wav" WAVE TRACK 02 AUDIO TITLE "Too Hot To Stop" PERFORMER "The Bar-Kays" INDEX 01 00:00:00FILE "03 - Lyle Workman - Seth Pulls Into Lot.wav" WAVE TRACK 03 AUDIO TITLE "Seth Pulls Into Lot" PERFORMER "Lyle Workman" INDEX 01 00:00:00FILE "04 - Lyle Workman - Cops See Fogel's ID - Seth Saves Evan.wav" WAVE TRACK 04 AUDIO TITLE "Cops See Fogel's ID / Seth Saves Evan" PERFORMER "Lyle Workman" INDEX 01 00:00:00FILE "05 - Jean Knight - Do Me.wav" WAVE TRACK 05 AUDIO TITLE "Do Me" PERFORMER "Jean Knight" INDEX 01 00:00:00FILE "06 - Lyle Workman - Flashback Party Weekend.wav" WAVE TRACK 06 AUDIO TITLE "Flashback Party Weekend" PERFORMER "Lyle Workman" INDEX 01 00:00:00FILE "07 - Curtis Mayfield - P.S. I Love You.wav" WAVE TRACK 07 AUDIO TITLE "P.S. I Love You" PERFORMER "Curtis Mayfield" INDEX 01 00:00:00FILE "08 - Lyle Workman - Evan Runs.wav" WAVE TRACK 08 AUDIO TITLE "Evan Runs" PERFORMER "Lyle Workman" INDEX 01 00:00:00FILE "09 - Lyle Workman - Sleeping Bags.wav" WAVE TRACK 09 AUDIO TITLE "Sleeping Bags" PERFORMER "Lyle Workman" INDEX 01 00:00:00 TRACK 10 AUDIO TITLE "Like A Pimp" PERFORMER "Lyle Workman" INDEX 00 03:24:04FILE "10 - Lyle Workman - Like A Pimp.wav" WAVE INDEX 01 00:00:00FILE "11 - The Roots - Here I Come.wav" WAVE TRACK 11 AUDIO TITLE "Here I Come" PERFORMER "The Roots" INDEX 01 00:00:00FILE "12 - Lyle Workman - Seth Runs On Track.wav" WAVE TRACK 12 AUDIO TITLE "Seth Runs On Track" PERFORMER "Lyle Workman" INDEX 01 00:00:00FILE "13 - Rick James - Bustin' Out.wav" WAVE TRACK 13 AUDIO TITLE "Bustin' Out" PERFORMER "Rick James" INDEX 01 00:00:00FILE "14 - Lyle Workman - Evan's Basement Jam.wav" WAVE TRACK 14 AUDIO TITLE "Evan's Basement Jam" PERFORMER "Lyle Workman" INDEX 01 00:00:00FILE "15 - Sergio Mendes - Roda.wav" WAVE TRACK 15 AUDIO TITLE "Roda" PERFORMER "Sergio Mendes" INDEX 01 00:00:00FILE "16 - Lyle Workman - Goldslick - Seth Fantasy.wav" WAVE TRACK 16 AUDIO TITLE "Goldslick / Seth Fantasy" PERFORMER "Lyle Workman" INDEX 01 00:00:00FILE "17 - The Bar-Kays - Soulfinger.wav" WAVE TRACK 17 AUDIO TITLE "Soulfinger" PERFORMER "The Bar-Kays" INDEX 01 00:00:00FILE "18 - Lyle Workman - Funk McLovin.wav" WAVE TRACK 18 AUDIO TITLE "Funk McLovin" PERFORMER "Lyle Workman" INDEX 01 00:00:00
[CUETools log; Date: 15.12.2015 19:47:41; Version: 2.1.5][CTDB TOCID: m82UfrpsNkyOpRVA3e80klVvRAk-] found.Track | CTDB Status 1 | (5/5) Accurately ripped 2 | (5/5) Accurately ripped 3 | (5/5) Accurately ripped 4 | (5/5) Accurately ripped 5 | (5/5) Accurately ripped 6 | (5/5) Accurately ripped 7 | (5/5) Accurately ripped 8 | (5/5) Accurately ripped 9 | (5/5) Accurately ripped 10 | (5/5) Accurately ripped 11 | (5/5) Accurately ripped 12 | (5/5) Accurately ripped 13 | (5/5) Accurately ripped 14 | (5/5) Accurately ripped 15 | (5/5) Accurately ripped 16 | (5/5) Accurately ripped 17 | (5/5) Accurately ripped 18 | (5/5) Accurately ripped[AccurateRip ID: 0023b233-01d7df25-f20c6712] found.Track [ CRC | V2 ] Status 01 [8622720b|0d4ab2f7] (06+05/11) Accurately ripped 02 [c04ba73b|57b0b145] (06+05/11) Accurately ripped 03 [4075c60d|9e8fd565] (06+05/11) Accurately ripped 04 [0d392575|4e20a2d6] (06+05/11) Accurately ripped 05 [3709209f|89fc8318] (06+05/11) Accurately ripped 06 [547dd880|f40d879e] (06+05/11) Accurately ripped 07 [956f9081|571c89be] (06+05/11) Accurately ripped 08 [31eb7062|cbde1d54] (06+05/11) Accurately ripped 09 [3cb18ea0|27d41049] (06+05/11) Accurately ripped 10 [570df861|46aa5684] (06+05/11) Accurately ripped 11 [754bd6fe|39b2de88] (06+05/11) Accurately ripped 12 [d33810f3|e2654077] (06+05/11) Accurately ripped 13 [e7074a3d|fb346505] (06+05/11) Accurately ripped 14 [e4f7f084|60c96d92] (06+05/11) Accurately ripped 15 [1ceca868|21530d40] (06+05/11) Accurately ripped 16 [811d7279|0aa44d1a] (06+05/11) Accurately ripped 17 [fe9c3686|6c40e3e6] (06+05/11) Accurately ripped 18 [80e13549|7687bcac] (06+05/11) Accurately ripped

Track Peak [ CRC32 ] [W/O NULL] [ LOG ] -- 100,0 [684E798B] [8D8E29B8] 01 97,7 [ED6839EC] [3C912C38] CRC32 02 97,7 [F58540D2] [CE050983] CRC32 03 97,7 [93EA79BE] [B2C968CD] CRC32 04 100,0 [AC3D868B] [A8A47FD2] CRC32 05 97,7 [A6CC8A59] [3B339F48] CRC32 06 97,7 [0DE57539] [49138547] CRC32 07 97,7 [83933A5D] [A915DA74] CRC32 08 97,7 [6778AB37] [8509A84D] CRC32 09 98,8 [60B12DCF] [2E260DF2] CRC32 10 87,0 [3E8601F9] [14E4D302] CRC32 11 96,6 [0FFD0166] [42BA8CB0] CRC32 12 95,5 [A7EDCE16] [D0410AEB] CRC32 13 95,5 [D91F934C] [78328FF1] CRC32 14 95,5 [279F0112] [43F152B8] CRC32 15 97,7 [74659E0A] [95ACE337] CRC32 16 97,7 [AA0B28C4] [64C6DAC7] CRC32 17 97,7 [91F29BBE] [55A67499] CRC32 18 100,0 [2D07EC43] [EF6A5B58] CRC32


Трекер:  [ 15-Дек-2015 20:00 ]

  

Скачать .torrent

Размер .torrent файла 17 KB


Размер: 373 MB
Хэш (hash) релиза: 29ddea0d94d7a93dd3564c352c4a2f9ad052eda2

Еще никто не оставлял запись к записи скачать торрент SuperПерцы Superbad . Будь первым!

!Обратная связь