Скачать порно через торрент [LucioSaints.com] Street of Sin with Josh Meza UnionPeer.org бесплатно онлайн HD качество

Скачать новое порно 2015, 2014 новинки через торрент UnionPeer.org

Порно торрент бесплатно ЮнионПир.орг

Если у вас наблюдаются проблемы со скриншотами, переходом по ссылками, скачиванием торрентов - проблемы в блокировщике рекламы AdBlock. #хорошегоДня!


Статистика раздачи
Размер:  169 MB   |    Зарегистрирован:  1 год 11 месяцев   |    .torrent скачан:  13 раз   |   
Раздают:  1  
   
Загрузка...
 
Автор Сообщение

Galfimbul

avatar Galfimbul


[LucioSaints.com] Street of Sin with Josh Meza

Имя актера: Josh Meza
Подсайт и сайт: LucioSaints.com

Год производства: 2015 г.
Жанр: Solo, Hunk, Uncut, Big Dick, Masturbation, Cumshot
Продолжительность: 00:13:11

Описание: LucioSaint’s site regularly delivers that hunky Mediterranean type of guys we love. Josh is from Barcelona, 25 years old. Josh has one of the biggest cocks (9 inches). This Catalan chav is a hot confident and dominant top and loves to fill tight holes. Enjoy!

Джош из Барселоны, ему 25 лет. Джош имеет большой член (23 см). Этот горячий каталонский бандюга любит мастурбировать, доминировать сверху и плотно заполнять отверстия. Наслаждайтесь!

Доп. информация: Официальный релиз - 21.11.2015

Тип HD видео: 720p
Формат видео: MP4
Видео: MPEG4 Video (H264) 1280x720, 23.976fps, 1677kbps, Bits/(Pixel*Frame): 0.076
Аудио: AAC 44100Hz, stereo, 2 channels, 111kbps
Format: MPEG-4
Format profile: Base Media
Codec ID: isom
File size: 169 MiB
Duration: 13mn 11s
Overall bit rate mode: Variable
Overall bit rate: 1 795 Kbps
Writing application: Lavf53.24.2

Video
Format: AVC
Format/Info: Advanced Video Codec
Format profile: High@L3.1
Format settings, CABAC: Yes
Format settings, ReFrames: 4 frames
Codec ID: avc1
Codec ID/Info: Advanced Video Coding
Duration: 13mn 11s
Bit rate: 1 672 Kbps
Width: 1 280 pixels
Height: 720 pixels
Display aspect ratio: 16:9
Frame rate mode: Constant
Frame rate: 23.976 fps
Color space: YUV
Chroma subsampling: 4:2:0
Bit depth: 8 bits
Scan type: Progressive
Bits/(Pixel*Frame): 0.076
Stream size: 158 MiB (93%)
Writing library: x264 core 118 r2085 8a62835

Audio
Format: AAC
Format/Info: Advanced Audio Codec
Format profile: LC
Codec ID: 40
Duration: 13mn 11s
Bit rate mode: Variable
Bit rate: 111 Kbps
Maximum bit rate: 128 Kbps
Channel(s): 2 channels
Channel positions: Front: L R
Sampling rate: 44.1 KHz
Compression mode: Lossy
Stream size: 10.5 MiB (6%)


Трекер:  [ 07-Дек-2015 06:30 ]

  

Скачать .torrent

Размер .torrent файла 13 KB


Размер: 169 MB
Хэш (hash) релиза: 61e05cc574e3676b0370c20213c6757365c2cef3

Еще никто не оставлял запись к записи скачать торрент [LucioSaints.com] Street of Sin with Josh Meza . Будь первым!

!Обратная связь