Скачать через торрент музыку Марсианин The Martian бесплатно без регистрации torrent

Если у вас наблюдаются проблемы со скриншотами, переходом по ссылками, скачиванием торрентов - проблемы в блокировщике рекламы AdBlock. #хорошегоДня!


Статистика раздачи
Размер:  598 MB   |    Зарегистрирован:  1 год 9 месяцев   |    .torrent скачан:  401 раз   |   
Раздают:  1  
   
Загрузка...
 
Автор Сообщение

Galfimbul

avatar Galfimbul


THE MARTIAN
DELUXE SOUNDTRACK
SONGS FROM THE MARTIAN & ORIGINAL SCORE

Жанр: Score, Ambient, Disco
Композитор: Harry Gregson-Williams
Год выпуска диска и фильма: 2015
Страна-производитель диска: US / EU
Издатель (лейбл): Columbia
Номер по каталогу: 88875167102
Аудиокодек: FLAC (*.flac)
Тип рипа: tracks+.cue
Битрейт аудио: lossless
Продолжительность: 33:10 + 51:49 = 1:24:59
Источник (релизер): minimuma
Наличие сканов в содержимом раздачи: да (*.png, 177 mb)
Треклист:
1.01. Vicki Sue Robinson – Turn the Beat Around [0:03:24.00]
1.02. Donna Summer – Hot Stuff [0:05:12.08]
1.03. The Hues Corporation – Rock the Boat [0:03:19.38]
1.04. Thelma Houston – Don't Leave Me This Way (single version) [0:03:37.20]
1.05. David Bowie – Starman (2012 remastered version) [0:04:14.55]
1.06. ABBA – Waterloo [0:02:46.31]
1.07. The O'Jays – Love Train [0:02:58.56]
1.08. Gloria Gaynor – I Will Survive [0:03:17.50]
1.09. Harry Gregson-Williams – The Martian Score Suite [0:04:19.43]
2.01. Harry Gregson-Williams – Mars [0:02:25.22]
2.02. Harry Gregson-Williams – Emergency Launch [0:03:09.70]
2.03. Harry Gregson-Williams – Making Water [0:02:38.12]
2.04. Harry Gregson-Williams – Spotting Movement [0:01:49.63]
2.05. Harry Gregson-Williams – Science The S*** Out Of This [0:02:16.65]
2.06. Harry Gregson-Williams – Messages From Hermes [0:03:31.19]
2.07. Harry Gregson-Williams – Sprouting Potatoes [0:01:39.19]
2.08. Harry Gregson-Williams – Whatney's Alive [0:02:46.11]
2.09. Harry Gregson-Williams – Pathfinder [0:02:33.31]
2.10. Harry Gregson-Williams – Hexadecimals [0:02:33.50]
2.11. Harry Gregson-Williams – Crossing Mats [0:03:36.44]
2.12. Harry Gregson-Williams – Reap & Sow [0:02:21.19]
2.13. Harry Gregson-Williams – Crops Are Dead [0:03:26.08]
2.14. Harry Gregson-Williams – Work The Problem [0:01:57.73]
2.15. Harry Gregson-Williams – See You In A Few [0:05:11.46]
2.16. Harry Gregson-Williams – Build A Bomb [0:05:06.31]
2.17. Harry Gregson-Williams – Fly Like Iron Man [0:04:45.37]
Exact Audio Copy V1.1 from 23. June 2015

EAC extraction logfile from 1. December 2015, 13:03

Various Artists / Songs From The Martian

Used drive : ASUS SDR-08B1-U A Adapter: 1 ID: 0

Read mode : SecureUtilize accurate stream : YesDefeat audio cache : YesMake use of C2 pointers : No

Read offset correction : 6Overread into Lead-In and Lead-Out : NoFill up missing offset samples with silence : YesDelete leading and trailing silent blocks : NoNull samples used in CRC calculations : YesUsed interface : Native Win32 interface for Win NT & 2000Gap handling : Appended to previous track

Used output format : User Defined EncoderSelected bitrate : 1024 kBit/sQuality : HighAdd ID3 tag : NoCommand line compressor : C:\Program Files (x86)\Exact Audio Copy\FLAC\FLAC.EXEAdditional command line options : -6 -V -T "ARTIST=%artist%" -T "TITLE=%title%" -T "ALBUM=%albumtitle%" -T "DATE=%year%" -T "TRACKNUMBER=%tracknr%" -T "GENRE=%genre%" -T "COMMENT=%comment%" -T "BAND=%albuminterpret%" -T "ALBUMARTIST=%albuminterpret%" -T "COMPOSER=%composer%" %haslyrics%--tag-from-file=LYRICS="%lyricsfile%"%haslyrics% -T "DISCNUMBER=%cdnumber%" -T "TOTALDISCS=%totalcds%" -T "TOTALTRACKS=%numtracks%" %hascover%--picture="%coverfile%"%hascover% %source% -o %dest%

TOC of the extracted CD

Track | Start | Length | Start sector | End sector --------------------------------------------------------- 1 | 0:00.00 | 3:24.00 | 0 | 15299 2 | 3:24.00 | 5:12.08 | 15300 | 38707 3 | 8:36.08 | 3:19.38 | 38708 | 53670 4 | 11:55.46 | 3:37.20 | 53671 | 69965 5 | 15:32.66 | 4:14.55 | 69966 | 89070 6 | 19:47.46 | 2:46.31 | 89071 | 101551 7 | 22:34.02 | 2:58.56 | 101552 | 114957 8 | 25:32.58 | 3:17.50 | 114958 | 129782 9 | 28:50.33 | 4:19.43 | 129783 | 149250

Track 1

Filename D:\My Music\The Martain (Deluxe Soundtrack)\Various Artists - Songs From The Martian\01 - Turn the Beat Around.wav

Pre-gap length 0:00:02.00

Peak level 64.6 % Extraction speed 2.9 X Track quality 100.0 % Test CRC 20ACEBD0 Copy CRC 20ACEBD0 Accurately ripped (confidence 2) [7F773AB6] (AR v2) Copy OK

Track 2

Filename D:\My Music\The Martain (Deluxe Soundtrack)\Various Artists - Songs From The Martian\02 - Hot Stuff.wav

Peak level 98.9 % Extraction speed 3.4 X Track quality 100.0 % Test CRC C859B71B Copy CRC C859B71B Accurately ripped (confidence 2) [C9E0D601] (AR v2) Copy OK

Track 3

Filename D:\My Music\The Martain (Deluxe Soundtrack)\Various Artists - Songs From The Martian\03 - Rock the Boat.wav

Peak level 83.0 % Extraction speed 2.9 X Track quality 99.9 % Test CRC FAE0FA95 Copy CRC FAE0FA95 Accurately ripped (confidence 2) [819D3F62] (AR v2) Copy OK

Track 4

Filename D:\My Music\The Martain (Deluxe Soundtrack)\Various Artists - Songs From The Martian\04 - Don’t Leave Me This Way (single version).wav

Peak level 85.8 % Extraction speed 3.7 X Track quality 100.0 % Test CRC E6478564 Copy CRC E6478564 Accurately ripped (confidence 2) [7701DC78] (AR v2) Copy OK

Track 5

Filename D:\My Music\The Martain (Deluxe Soundtrack)\Various Artists - Songs From The Martian\05 - Starman (2012 remastered version).wav

Peak level 89.7 % Extraction speed 4.0 X Track quality 100.0 % Test CRC 874CD447 Copy CRC 874CD447 Accurately ripped (confidence 2) [6389E71B] (AR v2) Copy OK

Track 6

Filename D:\My Music\The Martain (Deluxe Soundtrack)\Various Artists - Songs From The Martian\06 - Waterloo.wav

Peak level 75.2 % Extraction speed 3.9 X Track quality 100.0 % Test CRC 4926A375 Copy CRC 4926A375 Accurately ripped (confidence 2) [B1E72ADD] (AR v2) Copy OK

Track 7

Filename D:\My Music\The Martain (Deluxe Soundtrack)\Various Artists - Songs From The Martian\07 - Love Train.wav

Peak level 98.9 % Extraction speed 4.1 X Track quality 100.0 % Test CRC D4F1AC17 Copy CRC D4F1AC17 Accurately ripped (confidence 2) [C373E004] (AR v2) Copy OK

Track 8

Filename D:\My Music\The Martain (Deluxe Soundtrack)\Various Artists - Songs From The Martian\08 - I Will Survive.wav

Peak level 92.8 % Extraction speed 4.3 X Track quality 100.0 % Test CRC 00BE7733 Copy CRC 00BE7733 Accurately ripped (confidence 2) [6B704C3E] (AR v2) Copy OK

Track 9

Filename D:\My Music\The Martain (Deluxe Soundtrack)\Various Artists - Songs From The Martian\09 - The Martian Score Suite.wav

Peak level 97.7 % Extraction speed 4.6 X Track quality 100.0 % Test CRC 88AC02C6 Copy CRC 88AC02C6 Accurately ripped (confidence 2) [B66DEBD8] (AR v2) Copy OK

All tracks accurately ripped

No errors occurred

End of status report

---- CUETools DB Plugin V2.1.6

[CTDB TOCID: lgvf59AhaEoWCaj3ixwYh5iMwIk-] foundSubmit result: lgvf59AhaEoWCaj3ixwYh5iMwIk- has been confirmedTrack | CTDB Status 1 | (11/11) Accurately ripped 2 | (11/11) Accurately ripped 3 | (11/11) Accurately ripped 4 | (11/11) Accurately ripped 5 | (11/11) Accurately ripped 6 | (11/11) Accurately ripped 7 | (11/11) Accurately ripped 8 | (11/11) Accurately ripped 9 | (11/11) Accurately ripped

==== Log checksum C7F313108BF1D935CE1E08BAE6D4BFCE0DE4AB0D4CCBD08235EFE83AC724C879 ====
Exact Audio Copy V1.1 from 23. June 2015

EAC extraction logfile from 1. December 2015, 14:22

Harry Gregson-Williams / The Martian Original Motion Picture Score

Used drive : ASUS SDR-08B1-U A Adapter: 1 ID: 0

Read mode : SecureUtilize accurate stream : YesDefeat audio cache : YesMake use of C2 pointers : No

Read offset correction : 6Overread into Lead-In and Lead-Out : NoFill up missing offset samples with silence : YesDelete leading and trailing silent blocks : NoNull samples used in CRC calculations : YesUsed interface : Native Win32 interface for Win NT & 2000Gap handling : Appended to previous track

Used output format : User Defined EncoderSelected bitrate : 1024 kBit/sQuality : HighAdd ID3 tag : NoCommand line compressor : C:\Program Files (x86)\Exact Audio Copy\FLAC\FLAC.EXEAdditional command line options : -6 -V -T "ARTIST=%artist%" -T "TITLE=%title%" -T "ALBUM=%albumtitle%" -T "DATE=%year%" -T "TRACKNUMBER=%tracknr%" -T "GENRE=%genre%" -T "COMMENT=%comment%" -T "BAND=%albuminterpret%" -T "ALBUMARTIST=%albuminterpret%" -T "COMPOSER=%composer%" %haslyrics%--tag-from-file=LYRICS="%lyricsfile%"%haslyrics% -T "DISCNUMBER=%cdnumber%" -T "TOTALDISCS=%totalcds%" -T "TOTALTRACKS=%numtracks%" %hascover%--picture="%coverfile%"%hascover% %source% -o %dest%

TOC of the extracted CD

Track | Start | Length | Start sector | End sector --------------------------------------------------------- 1 | 0:00.00 | 2:25.22 | 0 | 10896 2 | 2:25.22 | 3:09.70 | 10897 | 25141 3 | 5:35.17 | 2:38.12 | 25142 | 37003 4 | 8:13.29 | 1:49.63 | 37004 | 45241 5 | 10:03.17 | 2:16.65 | 45242 | 55506 6 | 12:20.07 | 3:31.19 | 55507 | 71350 7 | 15:51.26 | 1:39.19 | 71351 | 78794 8 | 17:30.45 | 2:46.11 | 78795 | 91255 9 | 20:16.56 | 2:33.31 | 91256 | 102761 10 | 22:50.12 | 2:33.50 | 102762 | 114286 11 | 25:23.62 | 3:36.44 | 114287 | 130530 12 | 29:00.31 | 2:21.19 | 130531 | 141124 13 | 31:21.50 | 3:26.08 | 141125 | 156582 14 | 34:47.58 | 1:57.73 | 156583 | 165430 15 | 36:45.56 | 5:11.46 | 165431 | 188801 16 | 41:57.27 | 5:06.31 | 188802 | 211782 17 | 47:03.58 | 4:45.37 | 211783 | 233194

Track 1

Filename D:\My Music\The Martain (Deluxe Soundtrack)\Harry Gregson-Williams - The Martian Original Motion Picture Score\01 - Mars.wav

Pre-gap length 0:00:02.00

Peak level 67.5 % Extraction speed 1.1 X Track quality 100.0 % Test CRC EA973961 Copy CRC EA973961 Accurately ripped (confidence 3) [F07C447D] (AR v2) Copy OK

Track 2

Filename D:\My Music\The Martain (Deluxe Soundtrack)\Harry Gregson-Williams - The Martian Original Motion Picture Score\02 - Emergency Launch.wav

Peak level 98.6 % Extraction speed 1.3 X Track quality 100.0 % Test CRC 99A1D94E Copy CRC 99A1D94E Accurately ripped (confidence 3) [FB6E4E7A] (AR v2) Copy OK

Track 3

Filename D:\My Music\The Martain (Deluxe Soundtrack)\Harry Gregson-Williams - The Martian Original Motion Picture Score\03 - Making Water.wav

Peak level 97.7 % Extraction speed 1.3 X Track quality 100.0 % Test CRC 9C5CFCFF Copy CRC 9C5CFCFF Accurately ripped (confidence 3) [F34D87BD] (AR v2) Copy OK

Track 4

Filename D:\My Music\The Martain (Deluxe Soundtrack)\Harry Gregson-Williams - The Martian Original Motion Picture Score\04 - Spotting Movement.wav

Peak level 97.7 % Extraction speed 1.3 X Track quality 100.0 % Test CRC B151A3B5 Copy CRC B151A3B5 Accurately ripped (confidence 3) [82D9A072] (AR v2) Copy OK

Track 5

Filename D:\My Music\The Martain (Deluxe Soundtrack)\Harry Gregson-Williams - The Martian Original Motion Picture Score\05 - Science The Sxxx Out Of This.wav

Peak level 98.8 % Extraction speed 1.4 X Track quality 100.0 % Test CRC 520D4C9A Copy CRC 520D4C9A Accurately ripped (confidence 3) [72FBB982] (AR v2) Copy OK

Track 6

Filename D:\My Music\The Martain (Deluxe Soundtrack)\Harry Gregson-Williams - The Martian Original Motion Picture Score\06 - Messages From Hermes.wav

Peak level 97.7 % Extraction speed 1.6 X Track quality 100.0 % Test CRC 1F6E1BB7 Copy CRC 1F6E1BB7 Accurately ripped (confidence 3) [1BE63B2A] (AR v2) Copy OK

Track 7

Filename D:\My Music\The Martain (Deluxe Soundtrack)\Harry Gregson-Williams - The Martian Original Motion Picture Score\07 - Sprouting Potatoes.wav

Peak level 62.2 % Extraction speed 1.1 X Track quality 99.8 % Test CRC 124B5FEB Copy CRC 124B5FEB Accurately ripped (confidence 3) [2729603F] (AR v2) Copy OK

Track 8

Filename D:\My Music\The Martain (Deluxe Soundtrack)\Harry Gregson-Williams - The Martian Original Motion Picture Score\08 - Whatney's Alive.wav

Peak level 97.7 % Extraction speed 1.6 X Track quality 100.0 % Test CRC 8100C004 Copy CRC 8100C004 Accurately ripped (confidence 3) [36B8D7EA] (AR v2) Copy OK

Track 9

Filename D:\My Music\The Martain (Deluxe Soundtrack)\Harry Gregson-Williams - The Martian Original Motion Picture Score\09 - Pathfinder.wav

Peak level 97.7 % Extraction speed 1.7 X Track quality 100.0 % Test CRC 20C2D08F Copy CRC 20C2D08F Accurately ripped (confidence 3) [16896EAD] (AR v2) Copy OK

Track 10

Filename D:\My Music\The Martain (Deluxe Soundtrack)\Harry Gregson-Williams - The Martian Original Motion Picture Score\10 - Hexadecimals.wav

Peak level 97.7 % Extraction speed 1.4 X Track quality 99.9 % Test CRC 87C0070E Copy CRC 87C0070E Accurately ripped (confidence 3) [33B95278] (AR v2) Copy OK

Track 11

Filename D:\My Music\The Martain (Deluxe Soundtrack)\Harry Gregson-Williams - The Martian Original Motion Picture Score\11 - Crossing Mats.wav

Peak level 97.7 % Extraction speed 1.9 X Track quality 100.0 % Test CRC 018C8653 Copy CRC 018C8653 Accurately ripped (confidence 3) [CDE6294B] (AR v2) Copy OK

Track 12

Filename D:\My Music\The Martain (Deluxe Soundtrack)\Harry Gregson-Williams - The Martian Original Motion Picture Score\12 - Reap & Sow.wav

Peak level 98.6 % Extraction speed 1.8 X Track quality 100.0 % Test CRC 50CE4307 Copy CRC 50CE4307 Accurately ripped (confidence 3) [97F907AA] (AR v2) Copy OK

Track 13

Filename D:\My Music\The Martain (Deluxe Soundtrack)\Harry Gregson-Williams - The Martian Original Motion Picture Score\13 - Crops Are Dead.wav

Peak level 76.6 % Extraction speed 2.0 X Track quality 100.0 % Test CRC 009693D2 Copy CRC 009693D2 Accurately ripped (confidence 3) [352F0A65] (AR v2) Copy OK

Track 14

Filename D:\My Music\The Martain (Deluxe Soundtrack)\Harry Gregson-Williams - The Martian Original Motion Picture Score\14 - Work The Problem.wav

Peak level 97.7 % Extraction speed 1.8 X Track quality 100.0 % Test CRC 59D2F130 Copy CRC 59D2F130 Accurately ripped (confidence 3) [340CB2A7] (AR v2) Copy OK

Track 15

Filename D:\My Music\The Martain (Deluxe Soundtrack)\Harry Gregson-Williams - The Martian Original Motion Picture Score\15 - See You In A Few.wav

Peak level 97.7 % Extraction speed 2.2 X Track quality 100.0 % Test CRC D8541C3B Copy CRC D8541C3B Accurately ripped (confidence 3) [D9B1DEB0] (AR v2) Copy OK

Track 16

Filename D:\My Music\The Martain (Deluxe Soundtrack)\Harry Gregson-Williams - The Martian Original Motion Picture Score\16 - Build A Bomb.wav

Peak level 97.7 % Extraction speed 2.1 X Track quality 99.9 % Test CRC CDD8ECCD Copy CRC CDD8ECCD Accurately ripped (confidence 3) [E6956730] (AR v2) Copy OK

Track 17

Filename D:\My Music\The Martain (Deluxe Soundtrack)\Harry Gregson-Williams - The Martian Original Motion Picture Score\17 - Fly Like Iron Man.wav

Peak level 98.8 % Extraction speed 2.4 X Track quality 100.0 % Test CRC D6E04AA1 Copy CRC D6E04AA1 Accurately ripped (confidence 3) [DDF684CC] (AR v2) Copy OK

All tracks accurately ripped

No errors occurred

End of status report

---- CUETools DB Plugin V2.1.6

[CTDB TOCID: g4Jx6gaAlSwqzs8nBwUCXi_0P0g-] foundSubmit result: g4Jx6gaAlSwqzs8nBwUCXi_0P0g- has been confirmedTrack | CTDB Status 1 | (12/12) Accurately ripped 2 | (12/12) Accurately ripped 3 | (12/12) Accurately ripped 4 | (12/12) Accurately ripped 5 | (12/12) Accurately ripped 6 | (12/12) Accurately ripped 7 | (12/12) Accurately ripped 8 | (12/12) Accurately ripped 9 | (12/12) Accurately ripped 10 | (12/12) Accurately ripped 11 | (12/12) Accurately ripped 12 | (12/12) Accurately ripped 13 | (12/12) Accurately ripped 14 | (12/12) Accurately ripped 15 | (12/12) Accurately ripped 16 | (12/12) Accurately ripped 17 | (12/12) Accurately ripped

==== Log checksum D5297D6A611147BA3FB3BDC98131DA4A6A1EC4D2B33E9787315BFB7A1B21E24F ====
REM GENRE SoundtrackREM DATE 2015REM DISCID 7307C609REM COMMENT "ExactAudioCopy v1.1"PERFORMER "Various Artists"TITLE "Songs From The Martian"FILE "01 - Turn the Beat Around.wav" WAVE TRACK 01 AUDIO TITLE "Turn the Beat Around" PERFORMER "Vicki Sue Robinson" INDEX 01 00:00:00FILE "02 - Hot Stuff.wav" WAVE TRACK 02 AUDIO TITLE "Hot Stuff" PERFORMER "Donna Summer" INDEX 01 00:00:00FILE "03 - Rock the Boat.wav" WAVE TRACK 03 AUDIO TITLE "Rock the Boat" PERFORMER "The Hues Corporation" INDEX 01 00:00:00FILE "04 - DonЎЇt Leave Me This Way (single version).wav" WAVE TRACK 04 AUDIO TITLE "DonЎЇt Leave Me This Way (single version)" PERFORMER "Thelma Houston" INDEX 01 00:00:00FILE "05 - Starman (2012 remastered version).wav" WAVE TRACK 05 AUDIO TITLE "Starman (2012 remastered version)" PERFORMER "David Bowie" INDEX 01 00:00:00FILE "06 - Waterloo.wav" WAVE TRACK 06 AUDIO TITLE "Waterloo" PERFORMER "ABBA" INDEX 01 00:00:00FILE "07 - Love Train.wav" WAVE TRACK 07 AUDIO TITLE "Love Train" PERFORMER "The O'Jays" INDEX 01 00:00:00FILE "08 - I Will Survive.wav" WAVE TRACK 08 AUDIO TITLE "I Will Survive" PERFORMER "Gloria Gaynor" INDEX 01 00:00:00FILE "09 - The Martian Score Suite.wav" WAVE TRACK 09 AUDIO TITLE "The Martian Score Suite" PERFORMER "Harry Gregson-Williams" INDEX 01 00:00:00
REM GENRE Soundtrack
REM DATE 2015
REM DISCID E60C2511
REM COMMENT "ExactAudioCopy v1.1"
PERFORMER "Harry Gregson-Williams"
TITLE "The Martian Original Motion Picture Score"
FILE "01 - Mars.wav" WAVE
TRACK 01 AUDIO
TITLE "Mars"
PERFORMER "Harry Gregson-Williams"
INDEX 01 00:00:00
FILE "02 - Emergency Launch.wav" WAVE
TRACK 02 AUDIO
TITLE "Emergency Launch"
PERFORMER "Harry Gregson-Williams"
INDEX 01 00:00:00
FILE "03 - Making Water.wav" WAVE
TRACK 03 AUDIO
TITLE "Making Water"
PERFORMER "Harry Gregson-Williams"
INDEX 01 00:00:00
FILE "04 - Spotting Movement.wav" WAVE
TRACK 04 AUDIO
TITLE "Spotting Movement"
PERFORMER "Harry Gregson-Williams"
INDEX 01 00:00:00
FILE "05 - Science The Sxxx Out Of This.wav" WAVE
TRACK 05 AUDIO
TITLE "Science The S*** Out Of This"
PERFORMER "Harry Gregson-Williams"
INDEX 01 00:00:00
FILE "06 - Messages From Hermes.wav" WAVE
TRACK 06 AUDIO
TITLE "Messages From Hermes"
PERFORMER "Harry Gregson-Williams"
INDEX 01 00:00:00
FILE "07 - Sprouting Potatoes.wav" WAVE
TRACK 07 AUDIO
TITLE "Sprouting Potatoes"
PERFORMER "Harry Gregson-Williams"
INDEX 01 00:00:00
FILE "08 - Whatney's Alive.wav" WAVE
TRACK 08 AUDIO
TITLE "Whatney's Alive"
PERFORMER "Harry Gregson-Williams"
INDEX 01 00:00:00
FILE "09 - Pathfinder.wav" WAVE
TRACK 09 AUDIO
TITLE "Pathfinder"
PERFORMER "Harry Gregson-Williams"
INDEX 01 00:00:00
FILE "10 - Hexadecimals.wav" WAVE
TRACK 10 AUDIO
TITLE "Hexadecimals"
PERFORMER "Harry Gregson-Williams"
INDEX 01 00:00:00
FILE "11 - Crossing Mats.wav" WAVE
TRACK 11 AUDIO
TITLE "Crossing Mats"
PERFORMER "Harry Gregson-Williams"
INDEX 01 00:00:00
FILE "12 - Reap & Sow.wav" WAVE
TRACK 12 AUDIO
TITLE "Reap & Sow"
PERFORMER "Harry Gregson-Williams"
INDEX 01 00:00:00
FILE "13 - Crops Are Dead.wav" WAVE
TRACK 13 AUDIO
TITLE "Crops Are Dead"
PERFORMER "Harry Gregson-Williams"
INDEX 01 00:00:00
FILE "14 - Work The Problem.wav" WAVE
TRACK 14 AUDIO
TITLE "Work The Problem"
PERFORMER "Harry Gregson-Williams"
INDEX 01 00:00:00
FILE "15 - See You In A Few.wav" WAVE
TRACK 15 AUDIO
TITLE "See You In A Few"
PERFORMER "Harry Gregson-Williams"
INDEX 01 00:00:00
FILE "16 - Build A Bomb.wav" WAVE
TRACK 16 AUDIO
TITLE "Build A Bomb"
PERFORMER "Harry Gregson-Williams"
INDEX 01 00:00:00
FILE "17 - Fly Like Iron Man.wav" WAVE
TRACK 17 AUDIO
TITLE "Fly Like Iron Man"
PERFORMER "Harry Gregson-Williams"
INDEX 01 00:00:00
AUDIOCHECKER v2.0 beta (build 457) - by Dester - opdester@freemail.hu~~~~~~~~~~~~~~~~~~~~~~~~~~~~~~~~~~

Started at: суббота, 05. 12. 2015. - 12:00.1526 files found

01 -===- D:\Harry Gregson-Williams (Score + Songs) – 2015 – The Martian (Deluxe Soundtrack) (88875167102)\Disc1 Songs From The Martian\01 - Turn the Beat Around.flac Extracted successfully Conclusion: this track is CDDA with probability 100% Tempfile successfully deleted.

02 -===- D:\Harry Gregson-Williams (Score + Songs) – 2015 – The Martian (Deluxe Soundtrack) (88875167102)\Disc1 Songs From The Martian\02 - Hot Stuff.flac Extracted successfully Conclusion: this track is CDDA with probability 100% Tempfile successfully deleted.

03 -===- D:\Harry Gregson-Williams (Score + Songs) – 2015 – The Martian (Deluxe Soundtrack) (88875167102)\Disc1 Songs From The Martian\03 - Rock the Boat.flac Extracted successfully Conclusion: this track is CDDA with probability 99% Tempfile successfully deleted.

04 -===- D:\Harry Gregson-Williams (Score + Songs) – 2015 – The Martian (Deluxe Soundtrack) (88875167102)\Disc1 Songs From The Martian\04 - Don’t Leave Me This Way (single version).flac Extracted successfully Conclusion: this track is CDDA with probability 100% Tempfile successfully deleted.

05 -===- D:\Harry Gregson-Williams (Score + Songs) – 2015 – The Martian (Deluxe Soundtrack) (88875167102)\Disc1 Songs From The Martian\05 - Starman (2012 remastered version).flac Extracted successfully Conclusion: this track is CDDA with probability 100% Tempfile successfully deleted.

06 -===- D:\Harry Gregson-Williams (Score + Songs) – 2015 – The Martian (Deluxe Soundtrack) (88875167102)\Disc1 Songs From The Martian\06 - Waterloo.flac Extracted successfully Conclusion: this track is CDDA with probability 100% Tempfile successfully deleted.

07 -===- D:\Harry Gregson-Williams (Score + Songs) – 2015 – The Martian (Deluxe Soundtrack) (88875167102)\Disc1 Songs From The Martian\07 - Love Train.flac Extracted successfully Conclusion: this track is CDDA with probability 100% Tempfile successfully deleted.

08 -===- D:\Harry Gregson-Williams (Score + Songs) – 2015 – The Martian (Deluxe Soundtrack) (88875167102)\Disc1 Songs From The Martian\08 - I Will Survive.flac Extracted successfully Conclusion: this track is CDDA with probability 100% Tempfile successfully deleted.

09 -===- D:\Harry Gregson-Williams (Score + Songs) – 2015 – The Martian (Deluxe Soundtrack) (88875167102)\Disc1 Songs From The Martian\09 - The Martian Score Suite.flac Extracted successfully Conclusion: this track is CDDA with probability 100% Tempfile successfully deleted.

10 -===- D:\Harry Gregson-Williams (Score + Songs) – 2015 – The Martian (Deluxe Soundtrack) (88875167102)\Disc2 The Martian Original Motion Picture Score\01 - Mars.flac Extracted successfully Conclusion: this track is CDDA with probability 100% Tempfile successfully deleted.

11 -===- D:\Harry Gregson-Williams (Score + Songs) – 2015 – The Martian (Deluxe Soundtrack) (88875167102)\Disc2 The Martian Original Motion Picture Score\02 - Emergency Launch.flac Extracted successfully Conclusion: this track is CDDA with probability 100% Tempfile successfully deleted.

12 -===- D:\Harry Gregson-Williams (Score + Songs) – 2015 – The Martian (Deluxe Soundtrack) (88875167102)\Disc2 The Martian Original Motion Picture Score\03 - Making Water.flac Extracted successfully Conclusion: this track is CDDA with probability 100% Tempfile successfully deleted.

13 -===- D:\Harry Gregson-Williams (Score + Songs) – 2015 – The Martian (Deluxe Soundtrack) (88875167102)\Disc2 The Martian Original Motion Picture Score\04 - Spotting Movement.flac Extracted successfully Conclusion: this track is CDDA with probability 100% Tempfile successfully deleted.

14 -===- D:\Harry Gregson-Williams (Score + Songs) – 2015 – The Martian (Deluxe Soundtrack) (88875167102)\Disc2 The Martian Original Motion Picture Score\05 - Science The Sxxx Out Of This.flac Extracted successfully Conclusion: this track is CDDA with probability 100% Tempfile successfully deleted.

15 -===- D:\Harry Gregson-Williams (Score + Songs) – 2015 – The Martian (Deluxe Soundtrack) (88875167102)\Disc2 The Martian Original Motion Picture Score\06 - Messages From Hermes.flac Extracted successfully Conclusion: this track is CDDA with probability 100% Tempfile successfully deleted.

16 -===- D:\Harry Gregson-Williams (Score + Songs) – 2015 – The Martian (Deluxe Soundtrack) (88875167102)\Disc2 The Martian Original Motion Picture Score\07 - Sprouting Potatoes.flac Extracted successfully Conclusion: this track is CDDA with probability 100% Tempfile successfully deleted.

17 -===- D:\Harry Gregson-Williams (Score + Songs) – 2015 – The Martian (Deluxe Soundtrack) (88875167102)\Disc2 The Martian Original Motion Picture Score\08 - Whatney's Alive.flac Extracted successfully Conclusion: this track is CDDA with probability 100% Tempfile successfully deleted.

18 -===- D:\Harry Gregson-Williams (Score + Songs) – 2015 – The Martian (Deluxe Soundtrack) (88875167102)\Disc2 The Martian Original Motion Picture Score\09 - Pathfinder.flac Extracted successfully Conclusion: this track is CDDA with probability 100% Tempfile successfully deleted.

19 -===- D:\Harry Gregson-Williams (Score + Songs) – 2015 – The Martian (Deluxe Soundtrack) (88875167102)\Disc2 The Martian Original Motion Picture Score\10 - Hexadecimals.flac Extracted successfully Conclusion: this track is CDDA with probability 100% Tempfile successfully deleted.

20 -===- D:\Harry Gregson-Williams (Score + Songs) – 2015 – The Martian (Deluxe Soundtrack) (88875167102)\Disc2 The Martian Original Motion Picture Score\11 - Crossing Mats.flac Extracted successfully Conclusion: this track is CDDA with probability 100% Tempfile successfully deleted.

21 -===- D:\Harry Gregson-Williams (Score + Songs) – 2015 – The Martian (Deluxe Soundtrack) (88875167102)\Disc2 The Martian Original Motion Picture Score\12 - Reap & Sow.flac Extracted successfully Conclusion: this track is CDDA with probability 100% Tempfile successfully deleted.

22 -===- D:\Harry Gregson-Williams (Score + Songs) – 2015 – The Martian (Deluxe Soundtrack) (88875167102)\Disc2 The Martian Original Motion Picture Score\13 - Crops Are Dead.flac Extracted successfully Conclusion: this track is CDDA with probability 100% Tempfile successfully deleted.

23 -===- D:\Harry Gregson-Williams (Score + Songs) – 2015 – The Martian (Deluxe Soundtrack) (88875167102)\Disc2 The Martian Original Motion Picture Score\14 - Work The Problem.flac Extracted successfully Conclusion: this track is CDDA with probability 100% Tempfile successfully deleted.

24 -===- D:\Harry Gregson-Williams (Score + Songs) – 2015 – The Martian (Deluxe Soundtrack) (88875167102)\Disc2 The Martian Original Motion Picture Score\15 - See You In A Few.flac Extracted successfully Conclusion: this track is CDDA with probability 99% Tempfile successfully deleted.

25 -===- D:\Harry Gregson-Williams (Score + Songs) – 2015 – The Martian (Deluxe Soundtrack) (88875167102)\Disc2 The Martian Original Motion Picture Score\16 - Build A Bomb.flac Extracted successfully Conclusion: this track is CDDA with probability 100% Tempfile successfully deleted.

26 -===- D:\Harry Gregson-Williams (Score + Songs) – 2015 – The Martian (Deluxe Soundtrack) (88875167102)\Disc2 The Martian Original Motion Picture Score\17 - Fly Like Iron Man.flac Extracted successfully Conclusion: this track is CDDA with probability 100% Tempfile successfully deleted.

Finished at: суббота, 05. 12. 2015. - 12:11.21 (operation time: 0:11.05)
Доп. информация: Discogs | Amazon
Не вошедший трек: Pratt and McClain – Happy Days Theme

Трекер:  [ 05-Дек-2015 13:00 ]

  

Скачать .torrent

Размер .torrent файла 16 KB


Размер: 598 MB
Хэш (hash) релиза: 87416468303b5abda088fc88f5340424b9b5e268

Еще никто не оставлял запись к записи скачать торрент Марсианин The Martian . Будь первым!

!Обратная связь