Скачать через торрент музыку Жозефа Josepha бесплатно без регистрации torrent

Если у вас наблюдаются проблемы со скриншотами, переходом по ссылками, скачиванием торрентов - проблемы в блокировщике рекламы AdBlock. #хорошегоДня!


Статистика раздачи
Размер:  619 MB   |    Зарегистрирован:  1 год 9 месяцев   |    .torrent скачан:  28 раз   |   
Раздают:  1  
   
Загрузка...
 
Автор Сообщение

Galfimbul

avatar Galfimbul



Жозефа / Josepha
Composed and Conducted by Georges Delerue
Limited Edition

Жанр: Score | Дата выпуска: 4 ноября 2015
Издатель (лейбл): Music Box Records | Номер по каталогу: MBR-077
Аудиокодек: FLAC | Тип рипа: image+.cue | Битрейт аудио: lossless
Общая продолжительность: 76:16
Источник: Рип оригинального диска из личной коллекции


★★ JOSEPHA ★★ (1982)
01. Thème de Josepha [1:19]
02. Valse rococo [3:18]
03. La séparation [2:20]
04. Josepha et Régis [1:07]
05. Le premier pas / L'arme blanche [1:13]
06. Le néon au bout de la rue [2:05]
07. Le petit théâtre [1:09]
08. Ville d'eau [2:31]
09. MacBeth ''Les Sorcières'' / Autopsie de Dolorès Starr [2:11]
10. Josepha [2:03]

★★ FEMMES DE PERSONNE ★★ (1984)
11. Cécile [3:03]
12. Solitude 1 [2:11]
13. Porno [3:33]
14. Coup de fil au labo [1:17]
15. Danse de la mère [1:53]
16. Julie [4:35]
17. Marc et Julie [1:11]
18. Solitude 2 [1:03]
19. Cornflakes [2:51]
20. Antoine, Philippe, Marc et Isabelle [3:04]
21. Arnaud [2:07]
22. Je dors chez papa [3:54]
23. Cécile et Arnaud [1:38]
24. Je t'appelle demain au bureau [3:43]
25. Adeline [2:42]
26. Monica [1:41]
27. Générique de fin [2:42]
28. Trois heures moins dix [4:02]
29. Killing Time [4:31]
30. Disco Cécile [4:04]
Exact Audio Copy V1.0 beta 4 from 7. December 2014

EAC extraction logfile from 4. December 2015, 14:04

Georges Delerue / Josepha - Femmes de personne

Used drive : TSSTcorpCDDVDW TS-L633C Adapter: 1 ID: 0

Read mode : SecureUtilize accurate stream : YesDefeat audio cache : YesMake use of C2 pointers : No

Read offset correction : 6Overread into Lead-In and Lead-Out : NoFill up missing offset samples with silence : YesDelete leading and trailing silent blocks : NoNull samples used in CRC calculations : YesUsed interface : Native Win32 interface for Win NT & 2000

Used output format : Internal WAV RoutinesSample format : 44.100 Hz; 16 Bit; Stereo

TOC of the extracted CD

Track | Start | Length | Start sector | End sector --------------------------------------------------------- 1 | 0:00.00 | 1:21.56 | 0 | 6130 2 | 1:21.56 | 3:20.05 | 6131 | 21135 3 | 4:41.61 | 2:22.22 | 21136 | 31807 4 | 7:04.08 | 1:09.28 | 31808 | 37010 5 | 8:13.36 | 1:15.37 | 37011 | 42672 6 | 9:28.73 | 2:07.32 | 42673 | 52229 7 | 11:36.30 | 1:11.56 | 52230 | 57610 8 | 12:48.11 | 2:33.48 | 57611 | 69133 9 | 15:21.59 | 2:13.25 | 69134 | 79133 10 | 17:35.09 | 2:07.40 | 79134 | 88698 11 | 19:42.49 | 3:05.56 | 88699 | 102629 12 | 22:48.30 | 2:13.03 | 102630 | 112607 13 | 25:01.33 | 3:35.09 | 112608 | 128741 14 | 28:36.42 | 1:19.57 | 128742 | 134723 15 | 29:56.24 | 1:55.70 | 134724 | 143418 16 | 31:52.19 | 4:37.27 | 143419 | 164220 17 | 36:29.46 | 1:13.29 | 164221 | 169724 18 | 37:43.00 | 1:05.68 | 169725 | 174667 19 | 38:48.68 | 2:53.48 | 174668 | 187690 20 | 41:42.41 | 3:06.26 | 187691 | 201666 21 | 44:48.67 | 2:09.05 | 201667 | 211346 22 | 46:57.72 | 3:56.55 | 211347 | 229101 23 | 50:54.52 | 1:40.32 | 229102 | 236633 24 | 52:35.09 | 3:45.31 | 236634 | 253539 25 | 56:20.40 | 2:44.22 | 253540 | 265861 26 | 59:04.62 | 1:43.39 | 265862 | 273625 27 | 60:48.26 | 2:45.32 | 273626 | 286032 28 | 63:33.58 | 4:04.47 | 286033 | 304379 29 | 67:38.30 | 4:33.10 | 304380 | 324864 30 | 72:11.40 | 4:04.40 | 324865 | 343204

Range status and errors

Selected range

Filename D:\Georges Delerue - Josepha - Femmes de personne (MBR-077).wav

Peak level 82.3 % Extraction speed 4.3 X Range quality 100.0 % Test CRC 76524A3F Copy CRC 76524A3F Copy OK

No errors occurred

AccurateRip summary

Track 1 accurately ripped (confidence 2) [0829AFFA] (AR v2)Track 2 accurately ripped (confidence 2) [2EA2588D] (AR v2)Track 3 accurately ripped (confidence 2) [1FB25F0A] (AR v2)Track 4 accurately ripped (confidence 2) [D991D139] (AR v2)Track 5 accurately ripped (confidence 2) [3595ED84] (AR v2)Track 6 accurately ripped (confidence 2) [C1C48670] (AR v2)Track 7 accurately ripped (confidence 2) [703DA167] (AR v2)Track 8 accurately ripped (confidence 2) [1ED8EF5F] (AR v2)Track 9 accurately ripped (confidence 2) [974EE9F7] (AR v2)Track 10 accurately ripped (confidence 2) [AB376730] (AR v2)Track 11 accurately ripped (confidence 2) [9AA0D55B] (AR v2)Track 12 accurately ripped (confidence 2) [13DAF481] (AR v2)Track 13 accurately ripped (confidence 2) [4D81B068] (AR v2)Track 14 accurately ripped (confidence 2) [E342448E] (AR v2)Track 15 accurately ripped (confidence 2) [6F9642D6] (AR v2)Track 16 accurately ripped (confidence 2) [EF96FAF9] (AR v2)Track 17 accurately ripped (confidence 2) [6DAA7501] (AR v2)Track 18 accurately ripped (confidence 2) [2E1165E0] (AR v2)Track 19 accurately ripped (confidence 2) [F55208CF] (AR v2)Track 20 accurately ripped (confidence 2) [9460BB66] (AR v2)Track 21 accurately ripped (confidence 2) [2B9B5FFE] (AR v2)Track 22 accurately ripped (confidence 2) [381E255F] (AR v2)Track 23 accurately ripped (confidence 2) [E7F97F03] (AR v2)Track 24 accurately ripped (confidence 2) [9A104702] (AR v2)Track 25 accurately ripped (confidence 2) [E05C78CB] (AR v2)Track 26 accurately ripped (confidence 2) [43B050E7] (AR v2)Track 27 accurately ripped (confidence 2) [E158DD88] (AR v2)Track 28 accurately ripped (confidence 2) [81CF7825] (AR v2)Track 29 accurately ripped (confidence 2) [236A2006] (AR v2)Track 30 accurately ripped (confidence 2) [DA691CC5] (AR v2)

All tracks accurately ripped

End of status report

---- CUETools DB Plugin V2.1.4

[CTDB TOCID: jCqAjJauhTfAJbSWkhgjEoFfQCk-] foundSubmit result: jCqAjJauhTfAJbSWkhgjEoFfQCk- has been confirmedTrack | CTDB Status 1 | (3/3) Accurately ripped 2 | (3/3) Accurately ripped 3 | (3/3) Accurately ripped 4 | (3/3) Accurately ripped 5 | (3/3) Accurately ripped 6 | (3/3) Accurately ripped 7 | (3/3) Accurately ripped 8 | (3/3) Accurately ripped 9 | (3/3) Accurately ripped 10 | (3/3) Accurately ripped 11 | (3/3) Accurately ripped 12 | (3/3) Accurately ripped 13 | (3/3) Accurately ripped 14 | (3/3) Accurately ripped 15 | (3/3) Accurately ripped 16 | (3/3) Accurately ripped 17 | (3/3) Accurately ripped 18 | (3/3) Accurately ripped 19 | (3/3) Accurately ripped 20 | (3/3) Accurately ripped 21 | (3/3) Accurately ripped 22 | (3/3) Accurately ripped 23 | (3/3) Accurately ripped 24 | (3/3) Accurately ripped 25 | (3/3) Accurately ripped 26 | (3/3) Accurately ripped 27 | (3/3) Accurately ripped 28 | (3/3) Accurately ripped 29 | (3/3) Accurately ripped 30 | (3/3) Accurately ripped

==== Log checksum D3C7B4211E343F2844BE2AD4EBB62FE7AD45079AA958D20056601BEF896CC2C7 ====
REM GENRE ScoreREM DATE 1981REM DISCID AA11E01EREM COMMENT "ExactAudioCopy v1.0b4"PERFORMER "Georges Delerue"TITLE "Josepha - Femmes de personne"FILE "Georges Delerue - Josepha - Femmes de personne (MBR-077).flac" WAVE TRACK 01 AUDIO TITLE "Theme de Josepha" PERFORMER "Georges Delerue" INDEX 01 00:00:00 TRACK 02 AUDIO TITLE "Valse rococo" PERFORMER "Georges Delerue" INDEX 00 01:19:56 INDEX 01 01:21:56 TRACK 03 AUDIO TITLE "La separation" PERFORMER "Georges Delerue" INDEX 00 04:39:61 INDEX 01 04:41:61 TRACK 04 AUDIO TITLE "Josepha et Regis" PERFORMER "Georges Delerue" INDEX 00 07:02:08 INDEX 01 07:04:08 TRACK 05 AUDIO TITLE "Le premier pas / L'arme blanche" PERFORMER "Georges Delerue" INDEX 00 08:11:36 INDEX 01 08:13:36 TRACK 06 AUDIO TITLE "Le neon au bout de la rue" PERFORMER "Georges Delerue" INDEX 00 09:26:73 INDEX 01 09:28:73 TRACK 07 AUDIO TITLE "Le petit theatre" PERFORMER "Georges Delerue" INDEX 00 11:34:30 INDEX 01 11:36:30 TRACK 08 AUDIO TITLE "Ville d'eau" PERFORMER "Georges Delerue" INDEX 00 12:46:11 INDEX 01 12:48:11 TRACK 09 AUDIO TITLE "Macbeth 'Les sorcieres' / Autopsie de Dolores Starr" PERFORMER "Georges Delerue" INDEX 00 15:19:59 INDEX 01 15:21:59 TRACK 10 AUDIO TITLE "Josepha" PERFORMER "Georges Delerue" INDEX 00 17:33:09 INDEX 01 17:35:09 TRACK 11 AUDIO TITLE "Cecile" PERFORMER "Georges Delerue" INDEX 00 19:38:49 INDEX 01 19:42:49 TRACK 12 AUDIO TITLE "Solitude 1" PERFORMER "Georges Delerue" INDEX 00 22:46:30 INDEX 01 22:48:30 TRACK 13 AUDIO TITLE "Porno" PERFORMER "Georges Delerue" INDEX 00 24:59:33 INDEX 01 25:01:33 TRACK 14 AUDIO TITLE "Coup de fil au labo" PERFORMER "Georges Delerue" INDEX 00 28:34:42 INDEX 01 28:36:42 TRACK 15 AUDIO TITLE "Danse de la mere" PERFORMER "Georges Delerue" INDEX 00 29:54:24 INDEX 01 29:56:24 TRACK 16 AUDIO TITLE "Julie" PERFORMER "Georges Delerue" INDEX 00 31:50:19 INDEX 01 31:52:19 TRACK 17 AUDIO TITLE "Marc et Julie" PERFORMER "Georges Delerue" INDEX 00 36:27:46 INDEX 01 36:29:46 TRACK 18 AUDIO TITLE "Solitude 2" PERFORMER "Georges Delerue" INDEX 00 37:41:00 INDEX 01 37:43:00 TRACK 19 AUDIO TITLE "Cornflakes" PERFORMER "Georges Delerue" INDEX 00 38:46:68 INDEX 01 38:48:68 TRACK 20 AUDIO TITLE "Antoine, Philippe, Marc et Isabelle" PERFORMER "Georges Delerue" INDEX 00 41:40:41 INDEX 01 41:42:41 TRACK 21 AUDIO TITLE "Arnaud" PERFORMER "Georges Delerue" INDEX 00 44:46:67 INDEX 01 44:48:67 TRACK 22 AUDIO TITLE "Je dors chez papa" PERFORMER "Georges Delerue" INDEX 00 46:55:72 INDEX 01 46:57:72 TRACK 23 AUDIO TITLE "Cecile et Arnaud" PERFORMER "Georges Delerue" INDEX 00 50:52:52 INDEX 01 50:54:52 TRACK 24 AUDIO TITLE "Je t'appelle demain au bureau" PERFORMER "Georges Delerue" INDEX 00 52:33:09 INDEX 01 52:35:09 TRACK 25 AUDIO TITLE "Adeline" PERFORMER "Georges Delerue" INDEX 00 56:18:40 INDEX 01 56:20:40 TRACK 26 AUDIO TITLE "Monica" PERFORMER "Georges Delerue" INDEX 00 59:02:62 INDEX 01 59:04:62 TRACK 27 AUDIO TITLE "Generique de fin" PERFORMER "Georges Delerue" INDEX 00 60:46:26 INDEX 01 60:48:26 TRACK 28 AUDIO TITLE "Trois heures moins dix" PERFORMER "Georges Delerue" INDEX 00 63:30:58 INDEX 01 63:33:58 TRACK 29 AUDIO TITLE "Killing time" PERFORMER "Georges Delerue" INDEX 00 67:36:30 INDEX 01 67:38:30 TRACK 30 AUDIO TITLE "Disco Cecile" PERFORMER "Georges Delerue" INDEX 00 72:09:40 INDEX 01 72:11:40


Трекер:  [ 05-Дек-2015 01:30 ]

  

Скачать .torrent

Размер .torrent файла 26 KB


Размер: 619 MB
Хэш (hash) релиза: a04c44c146f4387338002761824a10f1564a0424

Еще никто не оставлял запись к записи скачать торрент Жозефа Josepha . Будь первым!

!Обратная связь