Скачать через торрент Сопротивление крови Удар крови бесплатно Аниме Все серии на русском torrent

Если у вас наблюдаются проблемы со скриншотами, переходом по ссылками, скачиванием торрентов - проблемы в блокировщике рекламы AdBlock. #хорошегоДня!


Статистика раздачи
Размер:  8.02 GB   |    Зарегистрирован:  1 год 9 месяцев   |    .torrent скачан:  23 раза   |   
Раздают:  1  
   
Загрузка...
 
Автор Сообщение

Galfimbul

avatar Galfimbul



Страна: Япония
Год выпуска: 2015 г.
Жанр: приключения, фэнтези, школа, сёнэн, вампиры, этти
Тип: OVA
Продолжительность: 2 эп, ~25 мин. серия.
Режиссер: Ямамото Хидэё
Студия: Silver Link
Описание:
Человечество заключило с демоническими силами нерушимый мирный договор, который от имени нечисти и нежити заверили три Истинных Предка, высшие князья вампиров. Только мало кто знает, что существует и Четвертый Предок, сильнейший вампир в истории, и уж совсем узкому кругу известно, что она, то ли по воле судьбы, то ли по собственному капризу, недавно передала свой дух и силу японскому старшекласснику Кодзё Акацуки. Парень в один миг превратился в угрозу мировому равновесию и, понимая это, изо всех сил пытается вести привычную жизнь, не открываясь ни старым друзьям, ни младшей сестренке Нагисе. Пытается-то он пытается, да кто же такому поверит?!
Акацуки учится в островном городе Итогами, специально созданном для совместного проживания людей и демонов. Мало того, что его лоли-учительница Нацуки – сильный боевой маг, так еще правительство отправляет следить за бедным Кодзё школьницу-мико Юкину Химэраги, вооруженную чудо-копьем «Снежный вальс». 15-летняя Юкина, воспитанная в лесном монастыре, видит задачу просто – с объектом надо всегда быть рядом, остальное не важно. Наивная девочка не понимает, что при этом подопечный может и не выжить от потери крови… э-э, в основном через нос. Ничего, природа возьмет свое, и красавица вернет милому вампиру кровь с лихвой! И, поверьте, не она одна!
© Hollow, World Art
Strike – один из самых многозначных английских глаголов, но, учитывая сюжет, название сериала можно понять как «Зажги кровь!»
Качество: BDRemux
Тип релиза: Без хардсаба
Формат видео: M2TS
Видео: AVC 1920x1080; 8 bit; ~ 39.0 Mbps; max 48.0 Mbps ; 23.976 fps
Аудио 1: PCM 48000Hz; stereo; 2304kbps; 16bit; Язык Японский
Аудио 2: PCM 48000Hz; stereo; 2304kbps; 16bit; Язык Японский (Комментарий)
Перевод:

русские субтитры от[Sovet Romantica] [OVA 01] (полные)

Переводчики:
Перевод: RoS , Редактура: Angara
ОбщееИдентификатор : 0 (0x0)Полное имя : D:\Аниме BD Remux\Аниме BD Remux M2TS\Strike the Blood\Strike the Blood OVA 2015 г\Strike the Blood OVA 01.m2tsФормат : BDAVФормат/Информация : Blu-ray VideoРазмер файла : 7,20 ГбайтПродолжительность : 23 м.Режим общего битрейта : ПеременныйОбщий поток : 44,3 Мбит/секМаксимальный общий битрейт : 48,0 Мбит/сек

ВидеоИдентификатор : 4113 (0x1011)Идентификатор меню : 1 (0x1)Формат : AVCФормат/Информация : Advanced Video CodecПрофиль формата : High@L4.1Параметр CABAC формата : ДаПараметр ReFrames формата : 4 кадраИдентификатор кодека : 27Продолжительность : 23 м.Вид битрейта : ПеременныйБитрейт : 37,9 Мбит/секМаксимальный битрейт : 39,0 Мбит/секШирина : 1920 пикселейВысота : 1080 пикселейСоотношение сторон : 16:9Частота кадров : 23,976 кадра/секЦветовое пространство : YUVСубдискретизация насыщенности : 4:2:0Битовая глубина : 8 битТип развёртки : ПрогрессивнаяБит/(Пиксели*Кадры) : 0.762Размер потока : 6,16 Гбайт (86%)

Аудио #1Идентификатор : 4352 (0x1100)Идентификатор меню : 1 (0x1)Формат : PCMПараметр Endianness формата : BigПараметр Sign формата : SignedРежим смешивания : Blu-rayИдентификатор кодека : 128Продолжительность : 23 м.Вид битрейта : ПостоянныйБитрейт : 2304 Кбит/секКаналы : 2 каналаРасположение каналов : Front: L RЧастота : 48,0 КГцБитовая глубина : 24 битРазмер потока : 384 Мбайт (5%)

Аудио #2Идентификатор : 4353 (0x1101)Идентификатор меню : 1 (0x1)Формат : PCMПараметр Endianness формата : BigПараметр Sign формата : SignedРежим смешивания : Blu-rayИдентификатор кодека : 128Продолжительность : 23 м.Вид битрейта : ПостоянныйБитрейт : 2304 Кбит/секКаналы : 2 каналаРасположение каналов : Front: L RЧастота : 48,0 КГцБитовая глубина : 24 битРазмер потока : 384 Мбайт (5%)
01. Valkyria no Oukoku-hen
Эта раздача BDRemux, Формат видео: M2TS.


Трекер:  [ 03-Дек-2015 17:30 ]

  

Скачать .torrent

Размер .torrent файла 11 KB


Размер: 8.02 GB
Хэш (hash) релиза: 338e5ba8d3ece0cc6c36d2882cfce1952d9e52bd
Подписка на обновления:

Торренты, похожие на Сопротивление крови Удар крови скачать торрент

Форум Название Автор Размер S L Добавлен
Аниме | HD Rips ·· Сопротивление крови / Удар крови / Strike the Blood (Ямамото Хидэё) [TV] [1 из 24] [Без хардсаба] [RUS(ext) JAP+SUB] [2013, приключения, фэнтези, BDRip] [1080p] Galfimbul 25215974642.35 GB 0 0 1497882746

17:32

19-Июн-17

Аниме | HD Rips ·· Сопротивление крови / Удар крови / Strike the Blood II (Ямамото Хидэё) [OVA] [2 из 8] [Без хардсаба] [JAP+SUB] [2016, фэнтези, школа, сёнэн, BDRemux] [1080p] Galfimbul 1875034497117.46 GB 0 0 1481993797

19:56

17-Дек-16

Аниме | HD Rips ·· Сопротивление крови / Удар крови / Strike the Blood (Ямамото Хидэё) [OVA] [2 из 2] [Без хардсаба] [JAP+SUB] [2015, фэнтези, школа, сёнэн,, BDRip] [1080p] Galfimbul 47606085814.43 GB 0 0 1481538643

13:30

12-Дек-16

Аниме | HD Rips ·· Сопротивление крови / Удар крови / Strike the Blood [OVA] [1 из 2] [Без хардсаба] [JAP, SUB] [2015 г., фэнтези, школа, сёнэн, BDRip] [720p] Galfimbul 587952693561 MB 0 0 1449829684

13:28

11-Дек-15

Аниме | HD Rips ·· Сопротивление крови / Удар крови / Strike the Blood (Ямамото Хидэё) [OVA] [1 из 2] [Без хардсаба] [JAP+SUB] [2015 г., приключения, фэнтези, школа, сёнэн, этти, BDRip] [1080p] Galfimbul 23067138782.15 GB 0 0 1449760958

18:22

10-Дек-15

Аниме | HD Rips ·· Сопротивление крови / Удар крови / Strike the Blood [OVA] [1 из 2] [Без хардсаба] [JAP, SUB] [2015 г., фэнтези, BDRip] [720p] Galfimbul 465146507444 MB 0 0 1449514898

22:01

7-Дек-15

Аниме | HD Rips ·· Сопротивление крови / Удар крови / Strike the Blood (Ямамото Хидэё) [TV] [24 из 24] [без хардсаба] [RUS(ext), JAP+SUB] [2013 г., фэнтези, BDRip] [1080p] Galfimbul 6433377756859.92 GB 0 0 1421425193

19:19

16-Янв-15

Аниме | HD Rips ·· Сопротивление крови / Удар крови / Strike the Blood (Ямамото Хидэё) [TV] [24 из 24] [Без хардсаба] [JAP+SUB] [2013 г., приключения, фэнтези, BDRip] [1080p] Galfimbul 4200546032239.12 GB 0 0 1420654834

21:20

7-Янв-15

Аниме | HD Rips ·· Сопротивление крови / Удар крови / Strike the Blood (Ямамото Хидэё) [TV] [24 из 24] [без хардсаба] [RUS(ext), JAP+SUB] [2013 г., фэнтези, BDRip] [720p] Galfimbul 2062531731619.21 GB 0 0 1419081598

16:19

20-Дек-14

Аниме | HD Rips ·· Сопротивление крови / Удар крови / Strike the Blood (Ямамото Хидэё) [TV] [01-20 из 24] [Без хардсаба] [JAP+SUB] [2013 г., приключения, фэнтези, WEBRip] [1080p] Polarnik 1135329423910.57 GB 0 0 1384807559

23:45

18-Ноя-13

Аниме | HD Rips ·· Сопротивление крови / Удар крови / Strike the Blood [TV] [01 из xx] [без хардсаба] [RUS(int), JAP+SUB] [2013, приключения, фэнтези, вампиры, HDTVRip] [720p] Polarnik 402923470384 MB 0 0 1381093650

00:07

7-Окт-13

Аниме | HD Rips ·· Удар крови (ОВА-2) / Strike the Blood II / Сопротивление крови / Зажги кровь! [OVA] [8 из 8] [Без хардсаба] [JAP, SUB] & [6 из 8] [RUS(ext)] [2016, Экшен, Сверхъестественное, Этти, Школа, Сёнен, BDRip] [1080p] Galfimbul 2005436700318.68 GB 0 0 1505305951

15:32

13-Сен-17

Аниме | HD Rips ·· Удар крови: Королевство валькирии (ОВА-1) / Strike the Blood: Valkyria no Oukoku Hen / Сопротивление крови / Зажги кровь! (Ямамото Хидэё) [OVA] [2 из 2] [Без хардсаба] [Rus(ext)+JAP+SUB] [2015, фэнтези, школа, сёнэн, BDRip] [1080p] Galfimbul 57986723285.4 GB 0 0 1505235718

20:01

12-Сен-17

Аниме | HD Rips ·· Удар крови (ОВА-2) / Strike the Blood II / Сопротивление крови / Зажги кровь! [OVA] [2 из 8] [Без хардсаба] [JAP, SUB] [2016, Экшен, Сверхъестественное, Этти, Школа, Сёнен, BDRip] [1080p] Galfimbul 38339230143.57 GB 0 0 1481583425

01:57

13-Дек-16

Аниме | HD Rips ·· Сопротивление крови / Strike the Blood / Удар крови (Ямамото Хидэё) [TV] [24 из 24] [Без хардсаба] [JAP+SUB] [2013 г., фэнтези, BDRemux] [1080p] Galfimbul 154011345445143.43 GB 0 0 1438770424

13:27

5-Авг-15

Еще никто не оставлял запись к записи скачать торрент Сопротивление крови Удар крови . Будь первым!

!Обратная связь