Скачать через торрент Безотказная Комори! Komori-san wa Kotowarenai! бесплатно Аниме Все серии на русском torrent

Если у вас наблюдаются проблемы со скриншотами, переходом по ссылками, скачиванием торрентов - проблемы в блокировщике рекламы AdBlock. #хорошегоДня!


Статистика раздачи
Размер:  301 MB   |    Зарегистрирован:  1 год 9 месяцев   |    .torrent скачан:  11 раз   |   
Раздают:  1  
   
Загрузка...
 
Автор Сообщение

Galfimbul

avatar Galfimbul


Безотказная Комори! / Komori-san wa Kotowarenai! / Komori-san Can't Decline!

Страна: Япония
Год выпуска: 2015 г.
Жанр: комедия, повседневность
Тип: TV
Продолжительность: 12 эп. по 2 мин.
Режиссер: Имайдзуми Кэнъити
Студия: Artland

Описание: Тяжела и трудна жизнь безотказных людей: они готовы день и ночь помогать страждущим, откладывая любые дела и не жалея живота своего ради блага окружающих. Шури Комори относится именно к таким вот уникальным "добрым самаритянам" — она всего лишь четырнадцатилетняя ученица средней школы, но в желании помочь первому встречному не уступит и Супермену. Причем в процессе она становится все больше на него похожа: то и дело таская тяжести по просьбе окружающих и оказывая им самые разные услуги, она обрела впечатляющую физическую силу.

Впрочем, есть у такой безотказности и положительная сторона: Комори, будучи открытой к общению девушкой с легким характером, обзавелась несколькими верными друзьями. Одна из них — Мегуми Нишитори, подруга еще с начальной школы, которая привыкла полагаться на Комори. Другая — Масако Негиши, отличающаяся некоторой циничностью и не устающая изумляться необычным качествам Комори. Ну, а еще их женскую компанию разбавляет одноклассник Куро Отани, недавно оказавшийся в одном классе с главной героиней и отчаянно желающий, чтобы люди почаще на него полагались.

Качество: HDTVRip
Тип релиза: Без хардсаба
Формат видео: MP4
Наличие линковки: Нет
Релиз/Автор рипа: Leopard-Raws
Видео: x264 (8 bit), 1280x720, ~1800 Kbps, 23.976 fps
Аудио JAP: AAC, 48000 Hz, ~192 Kbps, 2 ch
Субтитры RUS: ASS, внешние; Перевод: Наталия Ишова
GeneralComplete name : C:\Documents and Settings\Администратор\Мои документы\Downloads\Komori-san wa Kotowarenai!\[Leopard-Raws] Komori-san wa Kotowarenai! - 01 RAW (SUN 1280x720 x264 AAC).mp4Format : MPEG-4Format profile : Base MediaCodec ID : isomFile size : 27.9 MiBDuration : 1mn 59sOverall bit rate mode : VariableOverall bit rate : 1 954 KbpsEncoded date : UTC 2015-10-04 16:32:59Tagged date : UTC 2015-10-04 16:32:59

VideoID : 1Format : AVCFormat/Info : Advanced Video CodecFormat profile : High@L4.1Format settings, CABAC : YesFormat settings, ReFrames : 4 framesCodec ID : avc1Codec ID/Info : Advanced Video CodingDuration : 1mn 59sBit rate : 1 759 KbpsMaximum bit rate : 4 581 KbpsWidth : 1 280 pixelsHeight : 720 pixelsDisplay aspect ratio : 16:9Frame rate mode : ConstantFrame rate : 23.976 fpsColor space : YUVChroma subsampling : 4:2:0Bit depth : 8 bitsScan type : ProgressiveBits/(Pixel*Frame) : 0.080Stream size : 25.1 MiB (90%)Title : 264:fps=23.976@GPAC0.5.1-DEV-rev4929Writing library : x264 core 129 r2245+729M 1a52e03Encoding settings : cabac=1 / ref=4 / deblock=1:1:-1 / analyse=0x3:0x113 / me=umh / subme=9 / psy=1 / fade_compensate=0.00 / psy_rd=1.00:0.00 / mixed_ref=1 / me_range=24 / chroma_me=1 / trellis=2 / 8x8dct=1 / cqm=0 / deadzone=21,11 / fast_pskip=1 / chroma_qp_offset=-2 / threads=8 / lookahead_threads=1 / sliced_threads=0 / nr=0 / decimate=1 / interlaced=0 / bluray_compat=0 / constrained_intra=0 / fgo=0 / bframes=9 / b_pyramid=2 / b_adapt=2 / b_bias=0 / direct=1 / weightb=1 / open_gop=0 / weightp=2 / keyint=240 / keyint_min=24 / scenecut=40 / intra_refresh=0 / rc=crf / mbtree=0 / crf=18.5 / qcomp=0.72 / qpmin=0 / qpmax=69 / qpstep=4 / ip_ratio=1.40 / pb_ratio=1.30 / aq=1:0.85Encoded date : UTC 2015-10-04 16:32:59Tagged date : UTC 2015-10-04 16:32:59Color primaries : BT.709Transfer characteristics : BT.709Matrix coefficients : BT.709

AudioID : 2Format : AACFormat/Info : Advanced Audio CodecFormat profile : LCCodec ID : 40Duration : 1mn 59sBit rate mode : VariableBit rate : 192 KbpsMaximum bit rate : 221 KbpsChannel count : 2 channelsChannel positions : Front: L RSampling rate : 48.0 KHzCompression mode : LossyStream size : 2.75 MiB (10%)Language : JapaneseEncoded date : UTC 2015-10-04 15:28:21Tagged date : UTC 2015-10-04 16:32:59
01. Komori-san Can Be Relied Upon?
02. Komori-san Is Strong!
03. Komori-san Is Popular!
04. Komori-san Can Do Anything?
05. Negishi-san Has It All Covered!
06. Otani-kun Wants to Be Asked for Help!
07. The Pool Gets Your Heart Racing!
08. Summer Is for Having Fun!
09. Festivals Are Bittersweet!


Трекер:  [ 30-Ноя-2015 21:30 ]

  

Скачать .torrent

Размер .torrent файла 14 KB


Размер: 301 MB
Хэш (hash) релиза: 2ca9cf158413f21f2c1ab754ff96e3fbc1a77181
Подписка на обновления:

Торренты, похожие на Безотказная Комори! Komori-san wa Kotowarenai! скачать торрент

Форум Название Автор Размер S L Добавлен
Аниме | HD Rips ·· Безотказная Комори! / Komori-san wa Kotowarenai! / Komori-san Can't Decline! (Имайдзуми Кэнъити) [TV] [01-12 из 12] [Без хардсаба] [JAP+SUB] [2015 г., комедия, повседневность, HDTVRip] [720p] Galfimbul 416372072397 MB 0 0 1450781649

13:54

22-Дек-15

Аниме | HD Rips ·· Безотказная Комори! / Komori-san wa Kotowarenai! / Komori-san Can't Decline! (Имайдзуми Кэнъити) [TV] [01-11 из 12] [Без хардсаба] [JAP+SUB] [2015 г., комедия, повседневность, HDTVRip] [720p] Galfimbul 378733712361 MB 0 0 1450072739

08:58

14-Дек-15

Аниме | HD Rips ·· Безотказная Комори! / Komori-san wa Kotowarenai! / Komori-san Can't Decline! (Имайдзуми Кэнъити) [TV] [01-10 из 12] [Без хардсаба] [JAP+SUB] [2015 г., комедия, повседневность, HDTVRip] [720p] Galfimbul 348074279332 MB 0 0 1449476960

11:29

7-Дек-15

Аниме | HD Rips ·· Безотказная Комори! / Komori-san wa Kotowarenai! / Komori-san Can't Decline! (Имайдзуми Кэнъити) [TV] [01-08 из 12] [Без хардсаба] [JAP+SUB] [2015 г., комедия, HDTVRip] [720p] Galfimbul 285485591272 MB 0 0 1448222058

22:54

22-Ноя-15

Аниме | HD Rips ·· Безотказная Комори! / Komori-san wa Kotowarenai! / Komori-san Can't Decline! (Имайдзуми Кэнъити) [TV] [01-07 из 12] [Без хардсаба] [JAP+SUB] [2015 г., комедия, HDTVRip] [720p] Galfimbul 247586952236 MB 0 0 1447684433

17:33

16-Ноя-15

Аниме | HD Rips ·· Безотказная Комори! / Komori-san wa Kotowarenai! / Komori-san Can't Decline! (Имайдзуми Кэнъити) [TV] [01-06 из 12] [Без хардсаба] [JAP+SUB] [2015 г., комедия, HDTVRip] [720p] Galfimbul 205243137196 MB 0 0 1447208082

05:14

11-Ноя-15

Аниме | HD Rips ·· Безотказная Комори! / Komori-san wa Kotowarenai! / Komori-san Can't Decline! (Имайдзуми Кэнъити) [TV] [01-05 из 12] [Без хардсаба] [JAP+SUB] [2015 г., комедия, HDTVRip] [720p] Galfimbul 171391310163 MB 0 0 1446803909

12:58

6-Ноя-15

Аниме | HD Rips ·· Безотказная Комори! / Komori-san wa Kotowarenai! / Komori-san Can't Decline! (Имайдзуми Кэнъити) [TV] [01-02 из 12] [Без хардсаба] [JAP+SUB] [2015 г., комедия, HDTVRip] [720p] Galfimbul 5727117755 MB 0 0 1444859030

00:43

15-Окт-15

Еще никто не оставлял запись к записи скачать торрент Безотказная Комори! Komori-san wa Kotowarenai! . Будь первым!

!Обратная связь