Скачать через торрент музыку бесплатно без регистрации torrent

Если у вас наблюдаются проблемы со скриншотами, переходом по ссылками, скачиванием торрентов - проблемы в блокировщике рекламы AdBlock. #хорошегоДня!


Статистика раздачи
Размер:  900 MB   |    Зарегистрирован:  1 год 9 месяцев   |    .torrent скачан:  35 раз   |   
Раздают:  2  
   
Загрузка...
 
Автор Сообщение

Galfimbul

avatar Galfimbul


Roger Waters - The Wall

Жанр: Soundtrack, Progressive Rock, Rock
Носитель: CD
Год издания: 2015
Издатель (лейбл): Columbia/Legacy
Каталожный номер: 88875156382
Страна-производитель диска: E.U.
Аудиокодек: FLAC (*.flac)
Тип рипа: tracks+.cue
Битрейт аудио: lossless
Продолжительность: 51:58 + 51:04
Источник (релизер): thoms01 / naftamusic
Наличие сканов в содержимом раздачи: да

Disc One:
01 - In The Flesh (04:16)
02 - The Thin Ice (02:48)
03 - Another Brick In The Wall (Part 1) (04:09)
04 - That Happiest Days Of Our Lives (01:28)
05 - Another Brick In The Wall (Part 2) (03:46)
06 - The Ballad Of Jean Charles De Menezes (02:55)
07 - Mother (06:45)
08 - Goodby Blue Sky (03:40)
09 - Empty Spaces (02:47)
10 - What Shall We Do Now (01:31)
11 - Young Lust (04:03)
12 - One Of My Turns (03:26)
13 - Don't Leave Me Now (04:13)
14 - Another Brick In The Wall (Part 3) (01:23)
15 - Last Few Bricks (03:15)
16 - Goodbye Cruel World (01:35)
Disc Two:
01 - Hey You (04:43)
02 - Is There Anybody Out There (02:42)
03 - Nobody Home (03:44)
04 - Vera (01:09)
05 - Bring The Boys Back Home (01:55)
06 - Comfortably Numb (07:35)
07 - The Show Must Go On (02:32)
08 - In The Flesh (04:43)
09 - Run Like Hell (06:28)
10 - Waiting For The Worms (04:01)
11 - Stop (31)
12 - The Trial (06:31)
13 - Outside The Wall (04:32)
Exact Audio Copy V1.1 from 23. June 2015

EAC extraction logfile from 28. November 2015, 19:32

Roger Waters / The Wall

Used drive : PLEXTOR DVDR PX-891SA Adapter: 1 ID: 1

Read mode : SecureUtilize accurate stream : YesDefeat audio cache : YesMake use of C2 pointers : No

Read offset correction : 6Overread into Lead-In and Lead-Out : NoFill up missing offset samples with silence : YesDelete leading and trailing silent blocks : NoNull samples used in CRC calculations : YesUsed interface : Native Win32 interface for Win NT & 2000Gap handling : Appended to previous track

Used output format : User Defined EncoderSelected bitrate : 1024 kBit/sQuality : HighAdd ID3 tag : NoCommand line compressor : C:\Program Files (x86)\Exact Audio Copy\Flac\flac.exeAdditional command line options : -0 -V -T "ARTIST=%artist%" -T "TITLE=%title%" -T "ALBUM=%albumtitle%" -T "DATE=%year%" -T "TRACKNUMBER=%tracknr%" -T "TOTALTRACKS=%numtracks%" -T "GENRE=%genre%" -T "COMMENT=Naftamusic Release!" %source%

TOC of the extracted CD

Track | Start | Length | Start sector | End sector --------------------------------------------------------- 1 | 0:00.00 | 4:15.52 | 0 | 19176 2 | 4:15.52 | 2:48.14 | 19177 | 31790 3 | 7:03.66 | 4:08.47 | 31791 | 50437 4 | 11:12.38 | 1:27.41 | 50438 | 57003 5 | 12:40.04 | 3:45.58 | 57004 | 73936 6 | 16:25.62 | 2:54.45 | 73937 | 87031 7 | 19:20.32 | 6:44.41 | 87032 | 117372 8 | 26:04.73 | 3:40.02 | 117373 | 133874 9 | 29:45.00 | 2:46.39 | 133875 | 146363 10 | 32:31.39 | 1:30.39 | 146364 | 153152 11 | 34:02.03 | 4:02.70 | 153153 | 171372 12 | 38:04.73 | 3:26.15 | 171373 | 186837 13 | 41:31.13 | 4:12.46 | 186838 | 205783 14 | 45:43.59 | 1:23.32 | 205784 | 212040 15 | 47:07.16 | 3:15.34 | 212041 | 226699 16 | 50:22.50 | 1:35.01 | 226700 | 233825

Track 1

Filename E:\Nafta Releases\Roger Waters - The Wall (2 CD 2015)[FLAC] - Naftamusic\CD 1\01 - In The Flesh.wav

Pre-gap length 0:00:02.00

Peak level 100.0 % Extraction speed 1.9 X Track quality 100.0 % Test CRC 3E019A01 Copy CRC 3E019A01 Track not present in AccurateRip database Copy OK

Track 2

Filename E:\Nafta Releases\Roger Waters - The Wall (2 CD 2015)[FLAC] - Naftamusic\CD 1\02 - The Thin Ice.wav

Peak level 100.0 % Extraction speed 2.0 X Track quality 100.0 % Test CRC FB76EBC2 Copy CRC FB76EBC2 Track not present in AccurateRip database Copy OK

Track 3

Filename E:\Nafta Releases\Roger Waters - The Wall (2 CD 2015)[FLAC] - Naftamusic\CD 1\03 - Another Brick In The Wall (Part 1).wav

Peak level 100.0 % Extraction speed 1.7 X Track quality 99.9 % Test CRC D0B3E72F Copy CRC D0B3E72F Track not present in AccurateRip database Copy OK

Track 4

Filename E:\Nafta Releases\Roger Waters - The Wall (2 CD 2015)[FLAC] - Naftamusic\CD 1\04 - That Happiest Days Of Our Lives.wav

Peak level 100.0 % Extraction speed 1.9 X Track quality 100.0 % Test CRC B7F2DD98 Copy CRC B7F2DD98 Track not present in AccurateRip database Copy OK

Track 5

Filename E:\Nafta Releases\Roger Waters - The Wall (2 CD 2015)[FLAC] - Naftamusic\CD 1\05 - Another Brick In The Wall (Part 2).wav

Peak level 100.0 % Extraction speed 1.8 X Track quality 99.9 % Test CRC 83A21CE7 Copy CRC 83A21CE7 Track not present in AccurateRip database Copy OK

Track 6

Filename E:\Nafta Releases\Roger Waters - The Wall (2 CD 2015)[FLAC] - Naftamusic\CD 1\06 - The Ballad Of Jean Charles De Menezes.wav

Peak level 99.3 % Extraction speed 1.7 X Track quality 99.9 % Test CRC BE8A310B Copy CRC BE8A310B Track not present in AccurateRip database Copy OK

Track 7

Filename E:\Nafta Releases\Roger Waters - The Wall (2 CD 2015)[FLAC] - Naftamusic\CD 1\07 - Mother.wav

Peak level 98.9 % Extraction speed 3.0 X Track quality 100.0 % Test CRC 9AC661EE Copy CRC 9AC661EE Track not present in AccurateRip database Copy OK

Track 8

Filename E:\Nafta Releases\Roger Waters - The Wall (2 CD 2015)[FLAC] - Naftamusic\CD 1\08 - Goodby Blue Sky.wav

Peak level 97.8 % Extraction speed 2.9 X Track quality 100.0 % Test CRC 95C39DF1 Copy CRC 95C39DF1 Track not present in AccurateRip database Copy OK

Track 9

Filename E:\Nafta Releases\Roger Waters - The Wall (2 CD 2015)[FLAC] - Naftamusic\CD 1\09 - Empty Spaces.wav

Peak level 99.4 % Extraction speed 2.9 X Track quality 100.0 % Test CRC 303B984B Copy CRC 303B984B Track not present in AccurateRip database Copy OK

Track 10

Filename E:\Nafta Releases\Roger Waters - The Wall (2 CD 2015)[FLAC] - Naftamusic\CD 1\10 - What Shall We Do Now.wav

Peak level 99.8 % Extraction speed 2.6 X Track quality 100.0 % Test CRC 60BC2BF4 Copy CRC 60BC2BF4 Track not present in AccurateRip database Copy OK

Track 11

Filename E:\Nafta Releases\Roger Waters - The Wall (2 CD 2015)[FLAC] - Naftamusic\CD 1\11 - Young Lust.wav

Peak level 99.8 % Extraction speed 3.3 X Track quality 100.0 % Test CRC CCFF91A8 Copy CRC CCFF91A8 Track not present in AccurateRip database Copy OK

Track 12

Filename E:\Nafta Releases\Roger Waters - The Wall (2 CD 2015)[FLAC] - Naftamusic\CD 1\12 - One Of My Turns.wav

Peak level 99.4 % Extraction speed 2.3 X Track quality 99.9 % Test CRC 28C6DFED Copy CRC 28C6DFED Track not present in AccurateRip database Copy OK

Track 13

Filename E:\Nafta Releases\Roger Waters - The Wall (2 CD 2015)[FLAC] - Naftamusic\CD 1\13 - Don't Leave Me Now.wav

Peak level 100.0 % Extraction speed 3.5 X Track quality 100.0 % Test CRC ED083800 Copy CRC ED083800 Track not present in AccurateRip database Copy OK

Track 14

Filename E:\Nafta Releases\Roger Waters - The Wall (2 CD 2015)[FLAC] - Naftamusic\CD 1\14 - Another Brick In The Wall (Part 3).wav

Peak level 100.0 % Extraction speed 2.8 X Track quality 100.0 % Test CRC 3523CFAB Copy CRC 3523CFAB Track not present in AccurateRip database Copy OK

Track 15

Filename E:\Nafta Releases\Roger Waters - The Wall (2 CD 2015)[FLAC] - Naftamusic\CD 1\15 - Last Few Bricks.wav

Peak level 100.0 % Extraction speed 3.5 X Track quality 100.0 % Test CRC 0A0D9E48 Copy CRC 0A0D9E48 Track not present in AccurateRip database Copy OK

Track 16

Filename E:\Nafta Releases\Roger Waters - The Wall (2 CD 2015)[FLAC] - Naftamusic\CD 1\16 - Goodbye Cruel World.wav

Peak level 94.4 % Extraction speed 3.0 X Track quality 100.0 % Test CRC 511864AA Copy CRC 511864AA Track not present in AccurateRip database Copy OK

None of the tracks are present in the AccurateRip database

No errors occurred

End of status report

==== Log checksum E75254FAB6738D0FE43F8C7351EEA3BBBAA23E4C94CFBAA064B3137F8A12F835 ====
Exact Audio Copy V1.1 from 23. June 2015

EAC extraction logfile from 28. November 2015, 20:31

Roger Waters / The Wall

Used drive : PLEXTOR DVDR PX-891SA Adapter: 1 ID: 1

Read mode : SecureUtilize accurate stream : YesDefeat audio cache : YesMake use of C2 pointers : No

Read offset correction : 6Overread into Lead-In and Lead-Out : NoFill up missing offset samples with silence : YesDelete leading and trailing silent blocks : NoNull samples used in CRC calculations : YesUsed interface : Native Win32 interface for Win NT & 2000Gap handling : Appended to previous track

Used output format : User Defined EncoderSelected bitrate : 1024 kBit/sQuality : HighAdd ID3 tag : NoCommand line compressor : C:\Program Files (x86)\Exact Audio Copy\Flac\flac.exeAdditional command line options : -0 -V -T "ARTIST=%artist%" -T "TITLE=%title%" -T "ALBUM=%albumtitle%" -T "DATE=%year%" -T "TRACKNUMBER=%tracknr%" -T "TOTALTRACKS=%numtracks%" -T "GENRE=%genre%" -T "COMMENT=Naftamusic Release!" %source%

TOC of the extracted CD

Track | Start | Length | Start sector | End sector --------------------------------------------------------- 1 | 0:00.00 | 4:43.32 | 0 | 21256 2 | 4:43.32 | 2:41.51 | 21257 | 33382 3 | 7:25.08 | 3:44.32 | 33383 | 50214 4 | 11:09.40 | 1:08.59 | 50215 | 55373 5 | 12:18.24 | 1:54.45 | 55374 | 63968 6 | 14:12.69 | 7:34.56 | 63969 | 98074 7 | 21:47.50 | 2:31.66 | 98075 | 109465 8 | 24:19.41 | 4:42.43 | 109466 | 130658 9 | 29:02.09 | 6:27.39 | 130659 | 159722 10 | 35:29.48 | 4:01.16 | 159723 | 177813 11 | 39:30.64 | 0:30.61 | 177814 | 180124 12 | 40:01.50 | 6:30.46 | 180125 | 209420 13 | 46:32.21 | 4:31.54 | 209421 | 229799

Track 1

Filename E:\Nafta Releases\Roger Waters - The Wall (2 CD 2015)[FLAC] - Naftamusic\CD 2\01 - Hey You.wav

Pre-gap length 0:00:02.00

Peak level 100.0 % Extraction speed 1.9 X Track quality 100.0 % Test CRC 194B8F8C Copy CRC 194B8F8C Track not present in AccurateRip database Copy OK

Track 2

Filename E:\Nafta Releases\Roger Waters - The Wall (2 CD 2015)[FLAC] - Naftamusic\CD 2\02 - Is There Anybody Out There.wav

Peak level 98.8 % Extraction speed 1.3 X Track quality 99.9 % Test CRC 3BCAF1DA Copy CRC 3BCAF1DA Track not present in AccurateRip database Copy OK

Track 3

Filename E:\Nafta Releases\Roger Waters - The Wall (2 CD 2015)[FLAC] - Naftamusic\CD 2\03 - Nobody Home.wav

Peak level 98.7 % Extraction speed 1.6 X Track quality 99.9 % Test CRC 6250EB21 Copy CRC 6250EB21 Track not present in AccurateRip database Copy OK

Track 4

Filename E:\Nafta Releases\Roger Waters - The Wall (2 CD 2015)[FLAC] - Naftamusic\CD 2\04 - Vera.wav

Peak level 74.2 % Extraction speed 1.7 X Track quality 100.0 % Test CRC 3AAA881E Copy CRC 3AAA881E Track not present in AccurateRip database Copy OK

Track 5

Filename E:\Nafta Releases\Roger Waters - The Wall (2 CD 2015)[FLAC] - Naftamusic\CD 2\05 - Bring The Boys Back Home.wav

Peak level 100.0 % Extraction speed 2.1 X Track quality 100.0 % Test CRC F4C07A52 Copy CRC F4C07A52 Track not present in AccurateRip database Copy OK

Track 6

Filename E:\Nafta Releases\Roger Waters - The Wall (2 CD 2015)[FLAC] - Naftamusic\CD 2\06 - Comfortably Numb.wav

Peak level 100.0 % Extraction speed 2.8 X Track quality 100.0 % Test CRC F1817A37 Copy CRC F1817A37 Track not present in AccurateRip database Copy OK

Track 7

Filename E:\Nafta Releases\Roger Waters - The Wall (2 CD 2015)[FLAC] - Naftamusic\CD 2\07 - The Show Must Go On.wav

Peak level 98.8 % Extraction speed 2.6 X Track quality 100.0 % Test CRC 82FAA08E Copy CRC 82FAA08E Track not present in AccurateRip database Copy OK

Track 8

Filename E:\Nafta Releases\Roger Waters - The Wall (2 CD 2015)[FLAC] - Naftamusic\CD 2\08 - In The Flesh.wav

Peak level 100.0 % Extraction speed 3.0 X Track quality 100.0 % Test CRC 96DE4061 Copy CRC 96DE4061 Track not present in AccurateRip database Copy OK

Track 9

Filename E:\Nafta Releases\Roger Waters - The Wall (2 CD 2015)[FLAC] - Naftamusic\CD 2\09 - Run Like Hell.wav

Peak level 100.0 % Extraction speed 3.3 X Track quality 100.0 % Test CRC 631DCEB1 Copy CRC 631DCEB1 Track not present in AccurateRip database Copy OK

Track 10

Filename E:\Nafta Releases\Roger Waters - The Wall (2 CD 2015)[FLAC] - Naftamusic\CD 2\10 - Waiting For The Worms.wav

Peak level 100.0 % Extraction speed 3.3 X Track quality 100.0 % Test CRC 79187132 Copy CRC 79187132 Track not present in AccurateRip database Copy OK

Track 11

Filename E:\Nafta Releases\Roger Waters - The Wall (2 CD 2015)[FLAC] - Naftamusic\CD 2\11 - Stop.wav

Peak level 55.3 % Extraction speed 1.7 X Track quality 100.0 % Test CRC 20D8178C Copy CRC 20D8178C Track not present in AccurateRip database Copy OK

Track 12

Filename E:\Nafta Releases\Roger Waters - The Wall (2 CD 2015)[FLAC] - Naftamusic\CD 2\12 - The Trial.wav

Peak level 100.0 % Extraction speed 3.6 X Track quality 100.0 % Test CRC 774B6C10 Copy CRC 774B6C10 Track not present in AccurateRip database Copy OK

Track 13

Filename E:\Nafta Releases\Roger Waters - The Wall (2 CD 2015)[FLAC] - Naftamusic\CD 2\13 - Outside The Wall.wav

Peak level 57.1 % Extraction speed 3.7 X Track quality 100.0 % Test CRC C55249FD Copy CRC C55249FD Track not present in AccurateRip database Copy OK

None of the tracks are present in the AccurateRip database

No errors occurred

End of status report

==== Log checksum 48AE274CAF77CA573C2C5FEFF0A70294C475CAFE15F59A0D0794C817F420C69E ====
REM GENRE "Progressive Rock"REM DATE 2015REM DISCID F60C2D10REM COMMENT "ExactAudioCopy v1.1"PERFORMER "Roger Waters"TITLE "The Wall"FILE "01 - In The Flesh.wav" WAVE TRACK 01 AUDIO TITLE "In The Flesh" PERFORMER "Roger Waters" INDEX 01 00:00:00FILE "02 - The Thin Ice.wav" WAVE TRACK 02 AUDIO TITLE "The Thin Ice" PERFORMER "Roger Waters" INDEX 01 00:00:00FILE "03 - Another Brick In The Wall (Part 1).wav" WAVE TRACK 03 AUDIO TITLE "Another Brick In The Wall (Part 1)" PERFORMER "Roger Waters" INDEX 01 00:00:00FILE "04 - That Happiest Days Of Our Lives.wav" WAVE TRACK 04 AUDIO TITLE "That Happiest Days Of Our Lives" PERFORMER "Roger Waters" INDEX 01 00:00:00FILE "05 - Another Brick In The Wall (Part 2).wav" WAVE TRACK 05 AUDIO TITLE "Another Brick In The Wall (Part 2)" PERFORMER "Roger Waters" INDEX 01 00:00:00FILE "06 - The Ballad Of Jean Charles De Menezes.wav" WAVE TRACK 06 AUDIO TITLE "The Ballad Of Jean Charles De Menezes" PERFORMER "Roger Waters" INDEX 01 00:00:00FILE "07 - Mother.wav" WAVE TRACK 07 AUDIO TITLE "Mother" PERFORMER "Roger Waters" INDEX 01 00:00:00FILE "08 - Goodby Blue Sky.wav" WAVE TRACK 08 AUDIO TITLE "Goodby Blue Sky" PERFORMER "Roger Waters" INDEX 01 00:00:00FILE "09 - Empty Spaces.wav" WAVE TRACK 09 AUDIO TITLE "Empty Spaces" PERFORMER "Roger Waters" INDEX 01 00:00:00FILE "10 - What Shall We Do Now.wav" WAVE TRACK 10 AUDIO TITLE "What Shall We Do Now" PERFORMER "Roger Waters" INDEX 01 00:00:00FILE "11 - Young Lust.wav" WAVE TRACK 11 AUDIO TITLE "Young Lust" PERFORMER "Roger Waters" INDEX 01 00:00:00FILE "12 - One Of My Turns.wav" WAVE TRACK 12 AUDIO TITLE "One Of My Turns" PERFORMER "Roger Waters" INDEX 01 00:00:00FILE "13 - Don't Leave Me Now.wav" WAVE TRACK 13 AUDIO TITLE "Don't Leave Me Now" PERFORMER "Roger Waters" INDEX 01 00:00:00FILE "14 - Another Brick In The Wall (Part 3).wav" WAVE TRACK 14 AUDIO TITLE "Another Brick In The Wall (Part 3)" PERFORMER "Roger Waters" INDEX 01 00:00:00FILE "15 - Last Few Bricks.wav" WAVE TRACK 15 AUDIO TITLE "Last Few Bricks" PERFORMER "Roger Waters" INDEX 01 00:00:00FILE "16 - Goodbye Cruel World.wav" WAVE TRACK 16 AUDIO TITLE "Goodbye Cruel World" PERFORMER "Roger Waters" INDEX 01 00:00:00
REM GENRE "Progressive Rock"REM DATE 2015REM DISCID A70BF80DREM COMMENT "ExactAudioCopy v1.1"PERFORMER "Roger Waters"TITLE "The Wall"FILE "01 - Hey You.wav" WAVE TRACK 01 AUDIO TITLE "Hey You" PERFORMER "Roger Waters" INDEX 01 00:00:00FILE "02 - Is There Anybody Out There.wav" WAVE TRACK 02 AUDIO TITLE "Is There Anybody Out There" PERFORMER "Roger Waters" INDEX 01 00:00:00FILE "03 - Nobody Home.wav" WAVE TRACK 03 AUDIO TITLE "Nobody Home" PERFORMER "Roger Waters" INDEX 01 00:00:00FILE "04 - Vera.wav" WAVE TRACK 04 AUDIO TITLE "Vera" PERFORMER "Roger Waters" INDEX 01 00:00:00FILE "05 - Bring The Boys Back Home.wav" WAVE TRACK 05 AUDIO TITLE "Bring The Boys Back Home" PERFORMER "Roger Waters" INDEX 01 00:00:00FILE "06 - Comfortably Numb.wav" WAVE TRACK 06 AUDIO TITLE "Comfortably Numb" PERFORMER "Roger Waters" INDEX 01 00:00:00FILE "07 - The Show Must Go On.wav" WAVE TRACK 07 AUDIO TITLE "The Show Must Go On" PERFORMER "Roger Waters" INDEX 01 00:00:00FILE "08 - In The Flesh.wav" WAVE TRACK 08 AUDIO TITLE "In The Flesh" PERFORMER "Roger Waters" INDEX 01 00:00:00FILE "09 - Run Like Hell.wav" WAVE TRACK 09 AUDIO TITLE "Run Like Hell" PERFORMER "Roger Waters" INDEX 01 00:00:00FILE "10 - Waiting For The Worms.wav" WAVE TRACK 10 AUDIO TITLE "Waiting For The Worms" PERFORMER "Roger Waters" INDEX 01 00:00:00FILE "11 - Stop.wav" WAVE TRACK 11 AUDIO TITLE "Stop" PERFORMER "Roger Waters" INDEX 01 00:00:00FILE "12 - The Trial.wav" WAVE TRACK 12 AUDIO TITLE "The Trial" PERFORMER "Roger Waters" INDEX 01 00:00:00FILE "13 - Outside The Wall.wav" WAVE TRACK 13 AUDIO TITLE "Outside The Wall" PERFORMER "Roger Waters" INDEX 01 00:00:00
foobar2000 1.2.2 / Dynamic Range Meter 1.1.1log date: 2015-11-28 19:46:25

--------------------------------------------------------------------------------Analyzed: Roger Waters / The Wall--------------------------------------------------------------------------------

DR Peak RMS Duration Track--------------------------------------------------------------------------------DR5 0.00 dB -8.17 dB 4:16 01-In The FleshDR5 0.00 dB -9.63 dB 2:48 02-The Thin IceDR7 0.00 dB -10.26 dB 4:09 03-Another Brick In The Wall (Part 1)DR5 0.00 dB -7.34 dB 1:28 04-That Happiest Days Of Our LivesDR6 0.00 dB -7.55 dB 3:46 05-Another Brick In The Wall (Part 2)DR9 -0.06 dB -12.50 dB 2:55 06-The Ballad Of Jean Charles De MenezesDR8 -0.09 dB -11.67 dB 6:45 07-MotherDR12 -0.19 dB -14.57 dB 3:40 08-Goodby Blue SkyDR7 -0.05 dB -10.71 dB 2:47 09-Empty SpacesDR5 -0.02 dB -6.62 dB 1:31 10-What Shall We Do NowDR7 -0.02 dB -8.60 dB 4:03 11-Young LustDR8 -0.05 dB -11.43 dB 3:26 12-One Of My TurnsDR6 0.00 dB -11.73 dB 4:13 13-Don't Leave Me NowDR5 0.00 dB -6.77 dB 1:23 14-Another Brick In The Wall (Part 3)DR6 0.00 dB -7.78 dB 3:15 15-Last Few BricksDR9 -0.50 dB -19.25 dB 1:35 16-Goodbye Cruel World--------------------------------------------------------------------------------

Number of tracks: 16Official DR value: DR7

Samplerate: 44100 HzChannels: 2Bits per sample: 16Bitrate: 709 kbpsCodec: FLAC================================================================================
foobar2000 1.2.2 / Dynamic Range Meter 1.1.1log date: 2015-11-28 20:40:19

--------------------------------------------------------------------------------Analyzed: Roger Waters / The Wall--------------------------------------------------------------------------------

DR Peak RMS Duration Track--------------------------------------------------------------------------------DR7 0.00 dB -10.05 dB 4:43 01-Hey YouDR11 -0.10 dB -15.85 dB 2:42 02-Is There Anybody Out ThereDR10 -0.11 dB -13.74 dB 3:44 03-Nobody HomeDR10 -2.59 dB -15.72 dB 1:09 04-VeraDR5 0.00 dB -6.50 dB 1:55 05-Bring The Boys Back HomeDR5 0.00 dB -7.14 dB 7:35 06-Comfortably NumbDR10 -0.10 dB -13.28 dB 2:32 07-The Show Must Go OnDR4 0.00 dB -6.02 dB 4:43 08-In The FleshDR5 0.00 dB -6.60 dB 6:28 09-Run Like HellDR5 0.00 dB -6.76 dB 4:01 10-Waiting For The WormsDR12 -5.13 dB -21.61 dB 0:31 11-StopDR5 0.00 dB -9.06 dB 6:31 12-The TrialDR9 -4.86 dB -17.83 dB 4:32 13-Outside The Wall--------------------------------------------------------------------------------

Number of tracks: 13Official DR value: DR8

Samplerate: 44100 HzChannels: 2Bits per sample: 16Bitrate: 828 kbpsCodec: FLAC================================================================================


Трекер:  [ 29-Ноя-2015 01:00 ]

  

Скачать .torrent

Размер .torrent файла 21 KB


Размер: 900 MB
Хэш (hash) релиза: 3b8fd1fddc47b1a9f39d60a9f3f62d41bad25604

Еще никто не оставлял запись к записи скачать торрент . Будь первым!

!Обратная связь