Скачать через торрент Исука Иска бесплатно Аниме Все серии на русском torrent

Если у вас наблюдаются проблемы со скриншотами, переходом по ссылками, скачиванием торрентов - проблемы в блокировщике рекламы AdBlock. #хорошегоДня!


Статистика раздачи
Размер:  414 MB   |    Зарегистрирован:  1 год 10 месяцев   |    .torrent скачан:  53 раза   |   
Раздают:  1  
   
Загрузка...
 
Автор Сообщение

Galfimbul

avatar Galfimbul


Исука / Иска / Isuca

Страна: Япония
Год выпуска: 2015 г.
Жанр: комедия, фэнтези, этти
Тип: OVA
Продолжительность: ~24 мин.
Режиссер: Иванага Акира
Студия: ARMS

Перевод:
русские субтитры от КИЛД
(atom4ik, aXtr25, Jarly, Nachtwandler, Seiya Loveless, Матадор)

Описание: Бонус к эксклюзивному ограниченному изданию седьмого тома манги.

Синьитиро ищет работу, чтобы отплатить счета за квартиру. Его учительница предлагает ему работать у её знакомых, просто убираясь у тех дома. Человеком, который соглашается принять Асано, оказывается Сакуя — 37-я глава клана Симадзу, чьей работой является изгнание и уничтожение мистических существ. Синьитиро случайно выпускает одно из существ, которое некогда запечатала Сакуя. Теперь этим двоим придется работать вместе, чтобы поймать его. Здесь и начинается наша комическая история об охоте за чудовищами!

Качество: BDRip
Тип релиза: Без хардсаба
Формат видео: MP4
Наличие линковки: Нет
Релиз/Автор рипа: Ohys-Raws
Видео: x264 (8 bit), 1280x720, 2043 Kbps, 23.976 fps
Аудио JAP: AAC, 48000 Hz, 210 Kbps, 2 ch
Аудио RUS: AAC, 48000 Hz, 193 Kbps, 2 ch (внешним файлом); Озвучка: двухголосая (муж./жен.) от loster01 & Emeri (LE-Production)
Субтитры RUS: ASS, внешние
GeneralComplete name : C:\Documents and Settings\Администратор\Мои документы\Downloads\Isuca OVA [BDRip 720p]\Isuca - OAD (BD 1280x720 x264 AAC).mp4Format : MPEG-4Format profile : Base MediaCodec ID : isomFile size : 381 MiBDuration : 23mn 37sOverall bit rate mode : VariableOverall bit rate : 2 257 KbpsEncoded date : UTC 2015-08-29 02:38:26Tagged date : UTC 2015-08-29 02:38:26

VideoID : 1Format : AVCFormat/Info : Advanced Video CodecFormat profile : Main@L4.1Format settings, CABAC : YesFormat settings, ReFrames : 4 framesCodec ID : avc1Codec ID/Info : Advanced Video CodingDuration : 23mn 36sBit rate : 2 043 KbpsMaximum bit rate : 11.8 MbpsWidth : 1 280 pixelsHeight : 720 pixelsDisplay aspect ratio : 16:9Frame rate mode : ConstantFrame rate : 23.976 fpsColor space : YUVChroma subsampling : 4:2:0Bit depth : 8 bitsScan type : ProgressiveBits/(Pixel*Frame) : 0.092Stream size : 345 MiB (91%)Writing library : x264 core 148 r2579 73ae2d1Encoding settings : cabac=1 / ref=3 / deblock=1:0:0 / analyse=0x1:0x131 / me=umh / subme=9 / psy=1 / psy_rd=1.00:0.00 / mixed_ref=1 / me_range=32 / chroma_me=1 / trellis=1 / 8x8dct=0 / cqm=0 / deadzone=21,11 / fast_pskip=1 / chroma_qp_offset=-2 / threads=12 / lookahead_threads=1 / sliced_threads=0 / nr=0 / decimate=1 / interlaced=0 / bluray_compat=0 / constrained_intra=0 / bframes=3 / b_pyramid=2 / b_adapt=1 / b_bias=0 / direct=1 / weightb=1 / open_gop=0 / weightp=2 / keyint=240 / keyint_min=1 / scenecut=40 / intra_refresh=0 / rc_lookahead=40 / rc=crf / mbtree=1 / crf=17.0 / qcomp=0.60 / qpmin=0 / qpmax=69 / qpstep=4 / ip_ratio=1.40 / aq=1:1.00Encoded date : UTC 2015-08-29 02:38:26Tagged date : UTC 2015-08-29 02:38:30

AudioID : 2Format : AACFormat/Info : Advanced Audio CodecFormat profile : LCCodec ID : 40Duration : 23mn 37sBit rate mode : VariableBit rate : 210 KbpsMaximum bit rate : 267 KbpsChannel count : 2 channelsChannel positions : Front: L RSampling rate : 48.0 KHzCompression mode : LossyStream size : 35.5 MiB (9%)Language : JapaneseEncoded date : UTC 2015-08-29 02:26:29Tagged date : UTC 2015-08-29 02:38:30


Трекер:  [ 25-Ноя-2015 18:30 ]

  

Скачать .torrent

Размер .torrent файла 17 KB


Размер: 414 MB
Хэш (hash) релиза: 1ed6518d4a05d012c38552e2e4abee7d41eee35b
Подписка на обновления:

Торренты, похожие на Исука Иска скачать торрент

Форум Название Автор Размер S L Добавлен
Аниме | HD Rips ·· Исука / Иска / Isuca (Иванага Акира) [OVA] [1 из 1] [Без хардсаба] [RUS(ext), JAP+SUB] [2015 г., приключения, комедия, фэнтези, этти, BDRip] [1080p] Galfimbul 19173533591.79 GB 0 0 1462898349

19:39

10-Май-16

Аниме | HD Rips ·· Исука / Иска / Isuca (Иванага Акира) [OVA] [1 из 1] [Без хардсаба] [RUS(ext), JAP+SUB] [2015 г., приключения, комедия, фэнтези, этти, BDRip] [1080p] Galfimbul 18829780981.75 GB 0 0 1453396263

20:11

21-Янв-16

Аниме | HD Rips ·· Исука / Иска / Isuca (Иванага Акира) [OVA] [1 из 1] [Без хардсаба] [RUS(ext), JAP+SUB] [2015 г., комедия, фэнтези, этти, BDRip] [1080p] Galfimbul 23919979452.23 GB 0 0 1448469258

19:34

25-Ноя-15

Аниме | HD Rips ·· Исука / Иска / Isuca (Иванага Акира) [OVA] [1 из 1] [Без хардсаба] [JAP+SUB] [2015 г., комедия, фэнтези, этти, BDRip] [1080p] Galfimbul 23577831562.2 GB 0 0 1448041347

20:42

20-Ноя-15

Аниме | HD Rips ·· Исука / Иска / Isuca (Иванага Акира) [OVA] [1 из 1] [Без хардсаба] [JAP+SUB] [2015 г., комедия, фэнтези, этти, BDRip] [720p] Galfimbul 399862941381 MB 0 0 1448035143

18:59

20-Ноя-15

Аниме | Rips ·· Исука / Иска / Isuca [TV] [10 из 10] [без хардсаба] [RUS(int), JAP+SUB] [2015 г., приключения, фэнтези, этти, BDRip] Galfimbul 22497252612.1 GB 0 0 1444858551

00:35

15-Окт-15

Аниме | HD Rips ·· Исука / Иска / Isuca (Иванага Акира) [TV] [01-08 из 10] [Без хардсаба] [RUS(ext), JAP+SUB] [2015 г., приключения, фэнтези, этти, BDRip] [1080p] Galfimbul 1972505715718.37 GB 0 0 1438162489

12:34

29-Июл-15

Аниме | HD Rips ·· Исука / Иска / Isuca (Иванага Акира) [TV] [01-08 из 10] [Без хардсаба] [RUS(ext), JAP+SUB] [2015 г., приключения, фэнтези, этти, BDRip] [720p] Galfimbul 41140642973.83 GB 0 0 1438162484

12:34

29-Июл-15

Аниме | HD Rips ·· Иска / Исука / Isuca (Иванага Акира) [OVA] [1 из 1] [Без хардсаба] [RUS(ext), JAP+SUB] [2015 г., приключения, фэнтези, этти, BDRemux] [1080p] Galfimbul 81366671187.58 GB 0 0 1448555902

19:38

26-Ноя-15

Аниме | HD Rips ·· Иска / Исука / Isuca (Иванага Акира) [TV] [2 из >12] [Без хардсаба] [JAP+SUB] [2015 г., комедия, этти, романтика, школа, мистика, HDTVRip] [720p] Galfimbul 646545196617 MB 0 0 1422785678

13:14

1-Фев-15

Еще никто не оставлял запись к записи скачать торрент Исука Иска . Будь первым!

!Обратная связь