Скачать через торрент Скучный мир, где не существует самой идеи похабных шуток Shimoneta to Iu Gainen ga Sonzai Shinai Taikutsu na Sekai бесплатно Аниме Все серии на русском torrent

Если у вас наблюдаются проблемы со скриншотами, переходом по ссылками, скачиванием торрентов - проблемы в блокировщике рекламы AdBlock. #хорошегоДня!


Статистика раздачи
Размер:  1.08 GB   |    Зарегистрирован:  1 год 9 месяцев   |    .torrent скачан:  16 раз   |   
Раздают:  1  
   
Загрузка...
 
Автор Сообщение

Galfimbul

avatar Galfimbul


Скучный мир, где не существует самой идеи похабных шуток
Shimoneta to Iu Gainen ga Sonzai Shinai Taikutsu na Sekai | Shimoseka


Год выпуска: 2015
Страна: Япония
Жанр: комедия, этти, школа
Продолжительность: ТВ, 12 эп. по 25 мин.
Выпуск: c 04.07.2015 по 19.09.2015
Перевод:
<ol class="post-ul">
русские субтитры от I.D.A. (полные/вспомогательные)
переводчик Ingwar, редактор: Olivia Dei
</ol>
Режиссер: Такаюки Инагаки
Студия: J.C.STAFF
Описание:
После издания закона, запрещающего публичную огласку любой связанной с интимной жизнью информации, японцы вступили в пуританскую эру. Эротика оказалась вне закона, произнесение «пошлостей» превратилось в преступление, а половое воспитание ушло в небытие. Танукичи Окума – один из немногих школьников, имеющих вполне чёткое представление о половой жизни, и этим он обязан своему отцу, который яро протестовал против введения вышеупомянутого закона и даже прослыл террористом.
Впрочем, в данный момент Танукичи старательно притворяется пай-мальчиком – из средней школы, известной своим низким уровнем морали, он в погоне за красавицей Анной Нишикиномией перевёлся в старшую школу Токиока, имеющую безупречную репутацию, и решил соответствовать новому окружению. Да только тут его ждало аж три больших сюрприза, к которым он был не готов. Во-первых, местные девицы накинулись на него с требованием просветить их на тему отношений и беременности. Во-вторых, Анна попросила Танукичи как человека, разбирающегося в пошлостях, вступить в студсовет и помочь его членам блюсти общественную мораль. Ну, а в-третьих, в школе Токиока неожиданно обнаружилась настоящая террористка, жаждущая положить конец жесткой цензуре и рассчитывающая на помощь новичка.
Информационные ссылки: AniDB || World Art || MAL
Качество: BDRip
Энкод: [url=...mode=viewprofile&u=13569896]Kirino[/url] @ RG Lucky Clover
Тип видео: без хардсаба, без линковки
Формат: mkv
Видео: x264 (Hi10p), 1280x720, ~2500 Kbps, 23.976 fps
Аудио JAP №1: Vorbis, 48000Hz, ~256 Kbps, 2ch (uncensored)
Аудио JAP №2: Vorbis, 48000Hz, ~256 Kbps, 2ch (censored)
Аудио RUS: AC3, 48000Hz, ~192 Kbps, 2ch (внешними файлами)
<ol class="post-ul">
двухголосая (муж./жен.) от Snowly & Oni (SHIZA)
</ol>
01. Whom Does Public Order and Morality Serve?
02. The Mysteries of Pregnancy
Format                      : Matroska
Format version              : Version 4 / Version 2
File size                   : 528 MiB
Duration                    : 23mn 42s
Overall bit rate mode       : Variable
Overall bit rate            : 3 115 Kbps
Encoded date                : UTC 2015-11-25 12:01:42
Writing application         : mkvmerge v8.5.2 ('Crosses') 64bit
Writing library             : libebml v1.3.3 + libmatroska v1.4.4
DURATION                    : 00:23:42.104000000
NUMBER_OF_FRAMES            : 180395
NUMBER_OF_BYTES             : 44708345
_STATISTICS_WRITING_APP     : mkvmerge v8.5.2 ('Crosses') 64bit
_STATISTICS_WRITING_DATE_UT : 2015-11-25 12:01:42
_STATISTICS_TAGS            : BPS DURATION NUMBER_OF_FRAMES NUMBER_OF_BYTES

Video
ID                          : 1
Format                      : AVC
Format/Info                 : Advanced Video Codec
Format profile              : High 10@L4.1
Format settings, CABAC      : Yes
Format settings, ReFrames   : 9 frames
Codec ID                    : V_MPEG4/ISO/AVC
Duration                    : 23mn 42s
Bit rate                    : 2 541 Kbps
Width                       : 1 280 pixels
Height                      : 720 pixels
Display aspect ratio        : 16:9
Frame rate mode             : Constant
Frame rate                  : 23.976 fps
Color space                 : YUV
Chroma subsampling          : 4:2:0
Bit depth                   : 10 bits
Scan type                   : Progressive
Bits/(Pixel*Frame)          : 0.115
Stream size                 : 431 MiB (82%)
Title                       : Kirino @ RG Lucky Clover
Writing library             : x264 core 146 r2538 121396c
Encoding settings           : cabac=1 / ref=9 / deblock=1:-2:-2 / analyse=0x3:0x113 / me=umh / subme=10 / psy=1 / psy_rd=0.90:0.00 / mixed_ref=1 / me_range=32 / chroma_me=1 / trellis=2 / 8x8dct=1 / cqm=0 / deadzone=21,11 / fast_pskip=1 / chroma_qp_offset=-4 / threads=12 / lookahead_threads=2 / sliced_threads=0 / nr=0 / decimate=1 / interlaced=0 / bluray_compat=0 / constrained_intra=0 / bframes=8 / b_pyramid=2 / b_adapt=2 / b_bias=0 / direct=1 / weightb=1 / open_gop=0 / weightp=2 / keyint=240 / keyint_min=23 / scenecut=40 / intra_refresh=0 / rc_lookahead=40 / rc=crf / mbtree=0 / crf=15.8 / qcomp=0.70 / qpmin=9 / qpmax=40 / qpstep=4 / vbv_maxrate=50000 / vbv_bufsize=50000 / crf_max=0.0 / nal_hrd=none / filler=0 / ip_ratio=1.40 / pb_ratio=1.30 / aq=1:0.90
Language                    : Japanese
Default                     : Yes
Forced                      : No

Audio #1
ID                          : 2
Format                      : Vorbis
Format settings, Floor      : 1
Codec ID                    : A_VORBIS
Duration                    : 23mn 42s
Bit rate mode               : Variable
Bit rate                    : 256 Kbps
Channel(s)                  : 2 channels
Sampling rate               : 48.0 KHz
Compression mode            : Lossy
Stream size                 : 43.4 MiB (8%)
Title                       : uncensored
Writing library             : aoTuV 20110424 (UTC 2011-04-24)
Language                    : Japanese
Default                     : Yes
Forced                      : No

Audio #2
ID                          : 3
Format                      : Vorbis
Format settings, Floor      : 1
Codec ID                    : A_VORBIS
Duration                    : 23mn 42s
Bit rate mode               : Variable
Bit rate                    : 256 Kbps
Channel(s)                  : 2 channels
Sampling rate               : 48.0 KHz
Compression mode            : Lossy
Stream size                 : 43.4 MiB (8%)
Title                       : censored
Writing library             : aoTuV 20110424 (UTC 2011-04-24)
Default                     : No
Forced                      : No

Menu
00:00:00.000                : en:Avant+OP
00:02:34.028                : en:Part A
00:10:40.056                : en:Part B
00:22:05.032                : en:ED
00:23:35.038                : en:Next


<ol class="post-ul">
Данный релиз предназначен для просмотра на ПК. Воспроизведение на иных проигрывателях не гарантируется. Для просмотра рекомендуется Media Player Classic с установленным пакетом кодеков K-Lite.
</ol>
<ol class="post-ul">
Данный релиз содержит 10-битное видео (Hi10p). Для корректного воспроизведения обязательно используйте кодеки, поддерживающие 10-битное видео.
Обсудить частные случаи проблем с воспроизведением и получить дополнительную информацию можно [url=...3682344]здесь[/url].
</ol>
<ol class="post-ul">
Данный релиз предназначен для просмотра с внешними субтитрами и внешними звуковыми дорожками.
Для просмотра с внешней звуковой дорожкой нужно:
перекинуть файлы .mka из папки "RUS Sound [<автор(ы) озвучки>]" в одну папку с видео и переключить звуковую дорожку в плеере при просмотре. Как это сделать в разных плеерах подробно описано [url=...2403326]здесь[/url].
Для просмотра с субтитрами нужно:
перекинуть файлы .ass из папки "RUS Subtitles [<автор(ы) перевода>]" в одну папку с видео - плеер подгрузит их автоматически при открытии видео.
</ol>


Трекер:  [ 25-Ноя-2015 14:30 ]

  

Скачать .torrent

Размер .torrent файла 12 KB


Размер: 1.08 GB
Хэш (hash) релиза: 7aad50686e97c950d31bac78a84f0968e7e67fb9
Подписка на обновления:

Торренты, похожие на Скучный мир, где не существует самой идеи похабных шуток Shimoneta to Iu Gainen ga Sonzai Shinai Taikutsu na Sekai скачать торрент

Форум Название Автор Размер S L Добавлен
Аниме | Rips ·· Скучный мир, где не существует самой идеи похабных шуток / Shimoneta to Iu Gainen ga Sonzai Shinai Taikutsu na Sekai / Shimoseka [TV] [Без хардсаба] [12 из 12] [RUS(ext), JAP] & [8 из 12] [SUB] [2015, комедия, этти, школа, BDRip] [720p] Galfimbul 61286578805.71 GB 0 0 1492944311

13:45

23-Апр-17

Аниме | Rips ·· Скучный мир, где не существует самой идеи похабных шуток / Shimoneta to Iu Gainen ga Sonzai Shinai Taikutsu na Sekai / Shimoseka [TV] [Без хардсаба] [12 из 12] [RUS(ext), JAP] & [8 из 12] [SUB] [2015, комедия, этти, школа, BDRip] [1080p] Galfimbul 1576272084314.68 GB 0 0 1491371772

08:56

5-Апр-17

Аниме | HD Rips ·· Скучный мир, где не существует самой идеи похабных шуток / Shimoneta to Iu Gainen ga Sonzai Shinai Taikutsu na Sekai / Shimoseka [TV] [01-08 из 12] [без хардсаба] [JAP+SUB] [2015, комедия, этти, школа, BDRemux] [1080p] Galfimbul 6171822269457.48 GB 0 0 1482100734

01:38

19-Дек-16

Аниме | Rips ·· Скучный мир, где не существует самой идеи похабных шуток / Shimoneta to Iu Gainen ga Sonzai Shinai Taikutsu na Sekai / Shimoseka (Судзуки Ёхэй) [TV] [01-12 из 12] [Без хардсаба] [RUS(int), JAP] [2015 г., комедия, этти, школа, HDTVRip] [720p] Galfimbul 49686722144.63 GB 0 0 1444858911

00:41

15-Окт-15

Еще никто не оставлял запись к записи скачать торрент Скучный мир, где не существует самой идеи похабных шуток Shimoneta to Iu Gainen ga Sonzai Shinai Taikutsu na Sekai . Будь первым!

!Обратная связь