Скачать через торрент музыку Быстрее пули Faster бесплатно без регистрации torrent

Если у вас наблюдаются проблемы со скриншотами, переходом по ссылками, скачиванием торрентов - проблемы в блокировщике рекламы AdBlock. #хорошегоДня!


Статистика раздачи
Размер:  296 MB   |    Зарегистрирован:  6 лет 4 месяца   |    .torrent скачан:  72 раза   |   
Раздают:  1  
   
Загрузка...
 
Автор Сообщение

Mos

avatar Mos


Быстрее пули / Faster

Жанр: Score / Soundtrack
Композитор: Clint Mansell
Год выпуска диска: 2010
Производитель диска: USA
Аудио кодек: FLAC
Тип рипа: tracks+.cue
Битрейт аудио: lossless
Продолжительность: 00:54:11

01. Guido & Maurizio De Angelis - Goodbye My Friend (04:03)
02. Iggy Pop - I Wanna Be Your Dog (04:06)
03. Kenny Rogers & The First Edition - Just Dropped In (To See What Condition My Condition Was In) (03:19)
04. The Heavy - Short Change Hero (05:21)
05. Jeffrey Luck Lucas - Grifos Muertos (03:00)
06. Adewale Akinnuoye-Agbaje - John The Revelator (00:54)
07. Clint Mansell - Ten Year Stretch (01:49)
08. Clint Mansell - History Lesson (03:04)
09. Clint Mansell - Predators & Prey (07:02)
10. Clint Mansell - Lost lives (01:53)
11. Clint Mansell - Lovers (02:51)
12. Clint Mansell - Hospital Visit (04:35)
13. Clint Mansell - The Driver Drives (04:27)
14. Clint Mansell - Family Matters (02:37)
15. Clint Mansell - On A Mission (03:38)
16. Clint Mansell - Redemption (01:33)

Источник: what.cd
 
Exact Audio Copy V1.0 beta 1 from 15. November 2010

EAC extraction logfile from 9. March 2011, 15:26

Various / Faster

Used drive : TSSTcorpDVDWBD TS-LB23A Adapter: 0 ID: 1

Read mode : SecureUtilize accurate stream : YesDefeat audio cache : YesMake use of C2 pointers : No

Read offset correction : 6Overread into Lead-In and Lead-Out : NoFill up missing offset samples with silence : YesDelete leading and trailing silent blocks : NoNull samples used in CRC calculations : YesUsed interface : Native Win32 interface for Win NT & 2000Gap handling : Appended to previous track

Used output format : User Defined EncoderSelected bitrate : 128 kBit/sQuality : HighAdd ID3 tag : YesCommand line compressor : C:\Program Files (x86)\Exact Audio Copy\Flac\flac.exeAdditional command line options : -V -8 -T "artist=%a" -T "title=%t" -T "album=%g" -T "date=%y" -T "tracknumber=%n" -T "genre=%m" %s

TOC of the extracted CD

Track | Start | Length | Start sector | End sector --------------------------------------------------------- 1 | 0:00.00 | 4:03.14 | 0 | 18238 2 | 4:03.14 | 4:05.40 | 18239 | 36653 3 | 8:08.54 | 3:19.12 | 36654 | 51590 4 | 11:27.66 | 5:21.23 | 51591 | 75688 5 | 16:49.14 | 3:00.30 | 75689 | 89218 6 | 19:49.44 | 0:54.19 | 89219 | 93287 7 | 20:43.63 | 1:48.72 | 93288 | 101459 8 | 22:32.60 | 3:03.40 | 101460 | 115224 9 | 25:36.25 | 7:01.57 | 115225 | 146856 10 | 32:38.07 | 1:53.07 | 146857 | 155338 11 | 34:31.14 | 2:51.12 | 155339 | 168175 12 | 37:22.26 | 4:34.65 | 168176 | 188790 13 | 41:57.16 | 4:27.17 | 188791 | 208832 14 | 46:24.33 | 2:36.42 | 208833 | 220574 15 | 49:01.00 | 3:37.38 | 220575 | 236887 16 | 52:38.38 | 1:33.37 | 236888 | 243899

Track 1

Filename C:\Users\User\Music\Converted\Various\Faster\01 - Goodbye My Friend.wav

Pre-gap length 0:00:02.00

Peak level 97.0 % Extraction speed 1.3 X Track quality 100.0 % Test CRC EB894FD0 Copy CRC EB894FD0 Accurately ripped (confidence 1) [E88668F3] Copy OK

Track 2

Filename C:\Users\User\Music\Converted\Various\Faster\02 - I Wanna Be Your Dog.wav

Peak level 97.2 % Extraction speed 1.8 X Track quality 100.0 % Test CRC E7E6B517 Copy CRC E7E6B517 Accurately ripped (confidence 1) [65909FC8] Copy OK

Track 3

Filename C:\Users\User\Music\Converted\Various\Faster\03 - Just Dropped In (To See What Condition My Condition Was In).wav

Peak level 97.0 % Extraction speed 1.5 X Track quality 100.0 % Test CRC C8E5C99F Copy CRC C8E5C99F Accurately ripped (confidence 1) [853A95EB] Copy OK

Track 4

Filename C:\Users\User\Music\Converted\Various\Faster\04 - Short Change Hero.wav

Peak level 72.4 % Extraction speed 1.8 X Track quality 100.0 % Test CRC 57490546 Copy CRC 57490546 Accurately ripped (confidence 1) [BCEF7E8A] Copy OK

Track 5

Filename C:\Users\User\Music\Converted\Various\Faster\05 - Grifos Muertos.wav

Peak level 97.1 % Extraction speed 1.8 X Track quality 100.0 % Test CRC FF3D0292 Copy CRC FF3D0292 Accurately ripped (confidence 1) [204A3DC3] Copy OK

Track 6

Filename C:\Users\User\Music\Converted\Various\Faster\06 - John The Revelator.wav

Peak level 94.3 % Extraction speed 1.2 X Track quality 100.0 % Test CRC 54140F92 Copy CRC 54140F92 Accurately ripped (confidence 1) [DE93C9FF] Copy OK

Track 7

Filename C:\Users\User\Music\Converted\Various\Faster\07 - Ten Year Stretch.wav

Peak level 97.1 % Extraction speed 1.6 X Track quality 100.0 % Test CRC AF181D20 Copy CRC AF181D20 Accurately ripped (confidence 1) [6EB8654B] Copy OK

Track 8

Filename C:\Users\User\Music\Converted\Various\Faster\08 - History Lesson.wav

Peak level 97.1 % Extraction speed 1.9 X Track quality 100.0 % Test CRC D048E735 Copy CRC D048E735 Accurately ripped (confidence 1) [F8F572A4] Copy OK

Track 9

Filename C:\Users\User\Music\Converted\Various\Faster\09 - Predators & Prey.wav

Peak level 97.1 % Extraction speed 2.4 X Track quality 100.0 % Test CRC 4C47B899 Copy CRC 4C47B899 Accurately ripped (confidence 1) [FF7F43BF] Copy OK

Track 10

Filename C:\Users\User\Music\Converted\Various\Faster\10 - Lost lives.wav

Peak level 97.1 % Extraction speed 2.0 X Track quality 100.0 % Test CRC 746A43EC Copy CRC 746A43EC Accurately ripped (confidence 1) [3BB0431D] Copy OK

Track 11

Filename C:\Users\User\Music\Converted\Various\Faster\11 - Lovers.wav

Peak level 84.4 % Extraction speed 2.1 X Track quality 100.0 % Test CRC D2D9FA87 Copy CRC D2D9FA87 Accurately ripped (confidence 1) [5D021D67] Copy OK

Track 12

Filename C:\Users\User\Music\Converted\Various\Faster\12 - Hospital Visit.wav

Peak level 97.1 % Extraction speed 2.5 X Track quality 100.0 % Test CRC DB232D29 Copy CRC DB232D29 Accurately ripped (confidence 1) [C3213DF6] Copy OK

Track 13

Filename C:\Users\User\Music\Converted\Various\Faster\13 - The Driver Drives.wav

Peak level 97.1 % Extraction speed 2.6 X Track quality 100.0 % Test CRC 81EB48A6 Copy CRC 81EB48A6 Accurately ripped (confidence 1) [24D047BB] Copy OK

Track 14

Filename C:\Users\User\Music\Converted\Various\Faster\14 - Family Matters.wav

Peak level 31.6 % Extraction speed 2.7 X Track quality 100.0 % Test CRC 39F80BDB Copy CRC 39F80BDB Accurately ripped (confidence 1) [B1600B44] Copy OK

Track 15

Filename C:\Users\User\Music\Converted\Various\Faster\15 - On A Mission.wav

Peak level 97.1 % Extraction speed 2.1 X Track quality 99.9 % Test CRC CE2A0A79 Copy CRC CE2A0A79 Accurately ripped (confidence 1) [76210893] Copy OK

Track 16

Filename C:\Users\User\Music\Converted\Various\Faster\16 - Redemption.wav

Peak level 97.1 % Extraction speed 2.2 X Track quality 100.0 % Test CRC 2BFA71F4 Copy CRC 2BFA71F4 Accurately ripped (confidence 1) [010EAA59] Copy OK

All tracks accurately ripped

No errors occurred

End of status report
 
REM GENRE SoundtrackREM DATE 2010REM DISCID D60CB410REM COMMENT "ExactAudioCopy v1.0b1"PERFORMER "Various"TITLE "Faster"FILE "01 - Goodbye My Friend.wav" WAVE TRACK 01 AUDIO TITLE "Goodbye My Friend" PERFORMER "Guido & Maurizio De Angelis" INDEX 01 00:00:00FILE "02 - I Wanna Be Your Dog.wav" WAVE TRACK 02 AUDIO TITLE "I Wanna Be Your Dog" PERFORMER "Iggy Pop" INDEX 01 00:00:00FILE "03 - Just Dropped In (To See What Condition My Condition Was In).wav" WAVE TRACK 03 AUDIO TITLE "Just Dropped In (To See What Condition My Condition Was In)" PERFORMER "Kenny Rogers & The First Edition" INDEX 01 00:00:00FILE "04 - Short Change Hero.wav" WAVE TRACK 04 AUDIO TITLE "Short Change Hero" PERFORMER "The Heavy" INDEX 01 00:00:00FILE "05 - Grifos Muertos.wav" WAVE TRACK 05 AUDIO TITLE "Grifos Muertos" PERFORMER "Jeffrey Luck Lucas" INDEX 01 00:00:00FILE "06 - John The Revelator.wav" WAVE TRACK 06 AUDIO TITLE "John The Revelator" PERFORMER "Adewale Akinnuoye-Agbaje" INDEX 01 00:00:00FILE "07 - Ten Year Stretch.wav" WAVE TRACK 07 AUDIO TITLE "Ten Year Stretch" PERFORMER "Clint Mansell" INDEX 01 00:00:00FILE "08 - History Lesson.wav" WAVE TRACK 08 AUDIO TITLE "History Lesson" PERFORMER "Clint Mansell" INDEX 01 00:00:00FILE "09 - Predators & Prey.wav" WAVE TRACK 09 AUDIO TITLE "Predators & Prey" PERFORMER "Clint Mansell" INDEX 01 00:00:00FILE "10 - Lost lives.wav" WAVE TRACK 10 AUDIO TITLE "Lost lives" PERFORMER "Clint Mansell" INDEX 01 00:00:00FILE "11 - Lovers.wav" WAVE TRACK 11 AUDIO TITLE "Lovers" PERFORMER "Clint Mansell" INDEX 01 00:00:00FILE "12 - Hospital Visit.wav" WAVE TRACK 12 AUDIO TITLE "Hospital Visit" PERFORMER "Clint Mansell" INDEX 01 00:00:00FILE "13 - The Driver Drives.wav" WAVE TRACK 13 AUDIO TITLE "The Driver Drives" PERFORMER "Clint Mansell" INDEX 01 00:00:00FILE "14 - Family Matters.wav" WAVE TRACK 14 AUDIO TITLE "Family Matters" PERFORMER "Clint Mansell" INDEX 01 00:00:00FILE "15 - On A Mission.wav" WAVE TRACK 15 AUDIO TITLE "On A Mission" PERFORMER "Clint Mansell" INDEX 01 00:00:00FILE "16 - Redemption.wav" WAVE TRACK 16 AUDIO TITLE "Redemption" PERFORMER "Clint Mansell" INDEX 01 00:00:00


Трекер:  [ 27-Апр-2011 06:11 ]

  

Скачать .torrent

Размер .torrent файла 13 KB


Размер: 296 MB
Хэш (hash) релиза: a400512fea5818b96909c7c29afde4ea032219ca

Торренты, похожие на Быстрее пули Faster скачать торрент

Форум Название Автор Размер S L Добавлен
Саундтреки к фильмам и мультфильмам (mp3) ·· (Score / Soundtrack) Быстрее пули / Faster (by Clint Mansell & VA) - 2010, MP3, 320 kbps AqvaGen 137360098131 MB 0 0 1292265352

21:35

13-Дек-10

Еще никто не оставлял запись к записи скачать торрент Быстрее пули Faster . Будь первым!

!Обратная связь