Скачать через торрент музыку Чёрный лебедь Black Swan бесплатно без регистрации torrent

Если у вас наблюдаются проблемы со скриншотами, переходом по ссылками, скачиванием торрентов - проблемы в блокировщике рекламы AdBlock. #хорошегоДня!


Статистика раздачи
Размер:  239 MB   |    Зарегистрирован:  6 лет 4 месяца   |    .torrent скачан:  61 раз   |   
Раздают:  1  
   
Загрузка...
 
Автор Сообщение

Mos

avatar Mos


Чёрный лебедь / Black Swan


Жанр: Score
Композитор: Clint Mansell
Год выпуска диска: 2010
Страна-производитель диска: USA
Издатель (лейбл): Sony Masterworks
Аудио кодек: FLAC (*.flac)
Тип рипа: tracks+.cue
Битрейт аудио: lossless

Продолжительность: 52:38
Источник: what.cd
Треклист:

[02:48] 01 Nina's Dream
[01:06] 02 Mother Me
[02:39] 03 The New Season
[01:56] 04 A Room Of Her Own
[03:28] 05 A New Swan Queen
[02:08] 06 Lose Yourself
[03:29] 07 Cruel Mistress
[01:42] 08 Power, Seduction, Cries
[02:20] 09 The Double
[03:45] 10 Opposites Attract
[08:01] 11 Night Of Terror
[03:51] 12 Stumbled Beginnings...
[01:30] 13 It's My Time
[01:38] 14 A Swan Is Born
[05:45] 15 Perfection
[06:23] 16 A Swan Song (For Nina)
 
Exact Audio Copy V1.0 beta 1 from 15. November 2010

EAC extraction logfile from 16. December 2010, 19:17

Clint Mansell / Black Swan

Used drive : TOSHIBA DVD-ROM SD-R5112 Adapter: 1 ID: 0

Read mode : SecureUtilize accurate stream : YesDefeat audio cache : YesMake use of C2 pointers : No

Read offset correction : 116Overread into Lead-In and Lead-Out : NoFill up missing offset samples with silence : YesDelete leading and trailing silent blocks : NoNull samples used in CRC calculations : YesUsed interface : Native Win32 interface for Win NT & 2000Gap handling : Appended to previous track

Used output format : User Defined EncoderSelected bitrate : 1024 kBit/sQuality : HighAdd ID3 tag : NoCommand line compressor : C:\Program Files\Exact Audio Copy\Flac\flac.exeAdditional command line options : -V -8 -T "artist=%a" -T "title=%t" -T "album=%g" -T "date=%y" -T "tracknumber=%n" -T "genre=%m" %s

TOC of the extracted CD

Track | Start | Length | Start sector | End sector --------------------------------------------------------- 1 | 0:00.00 | 2:48.33 | 0 | 12632 2 | 2:48.33 | 1:06.61 | 12633 | 17643 3 | 3:55.19 | 2:39.04 | 17644 | 29572 4 | 6:34.23 | 1:56.24 | 29573 | 38296 5 | 8:30.47 | 3:28.57 | 38297 | 53953 6 | 11:59.29 | 2:08.32 | 53954 | 63585 7 | 14:07.61 | 3:29.58 | 63586 | 79318 8 | 17:37.44 | 1:42.47 | 79319 | 87015 9 | 19:20.16 | 2:20.33 | 87016 | 97548 10 | 21:40.49 | 3:45.12 | 97549 | 114435 11 | 25:25.61 | 8:01.53 | 114436 | 150563 12 | 33:27.39 | 3:51.36 | 150564 | 167924 13 | 37:19.00 | 1:30.58 | 167925 | 174732 14 | 38:49.58 | 1:38.60 | 174733 | 182142 15 | 40:28.43 | 5:44.70 | 182143 | 208012 16 | 46:13.38 | 6:23.35 | 208013 | 236772

Track 1

Filename C:\EACRips\Clint Mansell - 2010 - Black Swan\01 - Nina's Dream.wav

Pre-gap length 0:00:02.00

Peak level 99.8 % Extraction speed 3.6 X Track quality 100.0 % Test CRC 3373296E Copy CRC 3373296E Track not present in AccurateRip database Copy OK

Track 2

Filename C:\EACRips\Clint Mansell - 2010 - Black Swan\02 - Mother Me.wav

Peak level 37.8 % Extraction speed 3.0 X Track quality 100.0 % Test CRC C8825AD9 Copy CRC C8825AD9 Track not present in AccurateRip database Copy OK

Track 3

Filename C:\EACRips\Clint Mansell - 2010 - Black Swan\03 - The New Season.wav

Peak level 39.6 % Extraction speed 3.3 X Track quality 99.9 % Test CRC 018280FB Copy CRC 018280FB Track not present in AccurateRip database Copy OK

Track 4

Filename C:\EACRips\Clint Mansell - 2010 - Black Swan\04 - A Room Of Her Own.wav

Peak level 42.1 % Extraction speed 3.7 X Track quality 100.0 % Test CRC E67DEEDD Copy CRC E67DEEDD Track not present in AccurateRip database Copy OK

Track 5

Filename C:\EACRips\Clint Mansell - 2010 - Black Swan\05 - A New Swan Queen.wav

Peak level 61.5 % Extraction speed 4.2 X Track quality 100.0 % Test CRC CDFF14CD Copy CRC CDFF14CD Track not present in AccurateRip database Copy OK

Track 6

Filename C:\EACRips\Clint Mansell - 2010 - Black Swan\06 - Lose Yourself.wav

Peak level 94.8 % Extraction speed 3.8 X Track quality 100.0 % Test CRC C04C7C98 Copy CRC C04C7C98 Track not present in AccurateRip database Copy OK

Track 7

Filename C:\EACRips\Clint Mansell - 2010 - Black Swan\07 - Cruel Mistress.wav

Peak level 80.2 % Extraction speed 4.1 X Track quality 100.0 % Test CRC 73E0F7AA Copy CRC 73E0F7AA Track not present in AccurateRip database Copy OK

Track 8

Filename C:\EACRips\Clint Mansell - 2010 - Black Swan\08 - Power, Seduction, Cries.wav

Peak level 81.7 % Extraction speed 2.8 X Track quality 99.8 % Test CRC FA170140 Copy CRC FA170140 Track not present in AccurateRip database Copy OK

Track 9

Filename C:\EACRips\Clint Mansell - 2010 - Black Swan\09 - The Double.wav

Peak level 66.1 % Extraction speed 3.2 X Track quality 99.9 % Test CRC B1B71DF9 Copy CRC B1B71DF9 Track not present in AccurateRip database Copy OK

Track 10

Filename C:\EACRips\Clint Mansell - 2010 - Black Swan\10 - Opposites Attract.wav

Peak level 96.0 % Extraction speed 4.1 X Track quality 100.0 % Test CRC E5524E9F Copy CRC E5524E9F Track not present in AccurateRip database Copy OK

Track 11

Filename C:\EACRips\Clint Mansell - 2010 - Black Swan\11 - Night Of Terror.wav

Peak level 96.3 % Extraction speed 4.6 X Track quality 100.0 % Test CRC D3E73EF0 Copy CRC D3E73EF0 Track not present in AccurateRip database Copy OK

Track 12

Filename C:\EACRips\Clint Mansell - 2010 - Black Swan\12 - Stumbled Beginnings....wav

Peak level 95.8 % Extraction speed 4.2 X Track quality 100.0 % Test CRC 2C7E5D95 Copy CRC 2C7E5D95 Track not present in AccurateRip database Copy OK

Track 13

Filename C:\EACRips\Clint Mansell - 2010 - Black Swan\13 - It's My Time.wav

Peak level 98.6 % Extraction speed 3.5 X Track quality 100.0 % Test CRC F7FD4EE7 Copy CRC F7FD4EE7 Track not present in AccurateRip database Copy OK

Track 14

Filename C:\EACRips\Clint Mansell - 2010 - Black Swan\14 - A Swan Is Born.wav

Peak level 99.9 % Extraction speed 3.5 X Track quality 100.0 % Test CRC 0ADBD780 Copy CRC 0ADBD780 Track not present in AccurateRip database Copy OK

Track 15

Filename C:\EACRips\Clint Mansell - 2010 - Black Swan\15 - Perfection.wav

Peak level 94.5 % Extraction speed 4.4 X Track quality 100.0 % Test CRC A9122595 Copy CRC A9122595 Track not present in AccurateRip database Copy OK

Track 16

Filename C:\EACRips\Clint Mansell - 2010 - Black Swan\16 - A Swan Song (For Nina).wav

Peak level 78.2 % Extraction speed 4.5 X Track quality 100.0 % Test CRC 18B0BF8E Copy CRC 18B0BF8E Track not present in AccurateRip database Copy OK

None of the tracks are present in the AccurateRip database

No errors occurred

End of status report

==== Log checksum C6133284CD8BC4BDF6AF184A2D48883F7C217D0E847B2CA475E4432009CDACC3 ====
 
REM GENRE SoundtrackREM DATE 2010REM DISCID B80C5410REM COMMENT "ExactAudioCopy v1.0b1"PERFORMER "Clint Mansell"TITLE "Black Swan "FILE "01 - Nina's Dream.wav" WAVE TRACK 01 AUDIO TITLE "Nina's Dream" PERFORMER "Clint Mansell" FLAGS DCP INDEX 01 00:00:00FILE "02 - Mother Me.wav" WAVE TRACK 02 AUDIO TITLE "Mother Me" PERFORMER "Clint Mansell" FLAGS DCP INDEX 01 00:00:00FILE "03 - The New Season.wav" WAVE TRACK 03 AUDIO TITLE "The New Season" PERFORMER "Clint Mansell" FLAGS DCP INDEX 01 00:00:00FILE "04 - A Room Of Her Own.wav" WAVE TRACK 04 AUDIO TITLE "A Room Of Her Own" PERFORMER "Clint Mansell" FLAGS DCP INDEX 01 00:00:00FILE "05 - A New Swan Queen.wav" WAVE TRACK 05 AUDIO TITLE "A New Swan Queen" PERFORMER "Clint Mansell" FLAGS DCP INDEX 01 00:00:00FILE "06 - Lose Yourself.wav" WAVE TRACK 06 AUDIO TITLE "Lose Yourself" PERFORMER "Clint Mansell" FLAGS DCP INDEX 01 00:00:00FILE "07 - Cruel Mistress.wav" WAVE TRACK 07 AUDIO TITLE "Cruel Mistress" PERFORMER "Clint Mansell" FLAGS DCP INDEX 01 00:00:00FILE "08 - Power, Seduction, Cries.wav" WAVE TRACK 08 AUDIO TITLE "Power, Seduction, Cries" PERFORMER "Clint Mansell" FLAGS DCP INDEX 01 00:00:00FILE "C09 - The Double.wav" WAVE TRACK 09 AUDIO TITLE "The Double" PERFORMER "Clint Mansell" FLAGS DCP INDEX 01 00:00:00FILE "10 - Opposites Attract.wav" WAVE TRACK 10 AUDIO TITLE "Opposites Attract" PERFORMER "Clint Mansell" FLAGS DCP INDEX 01 00:00:00FILE "11 - Night Of Terror.wav" WAVE TRACK 11 AUDIO TITLE "Night Of Terror" PERFORMER "Clint Mansell" FLAGS DCP INDEX 01 00:00:00FILE "12 - Stumbled Beginnings....wav" WAVE TRACK 12 AUDIO TITLE "Stumbled Beginnings..." PERFORMER "Clint Mansell" FLAGS DCP INDEX 01 00:00:00FILE "13 - It's My Time.wav" WAVE TRACK 13 AUDIO TITLE "It's My Time" PERFORMER "Clint Mansell" FLAGS DCP INDEX 01 00:00:00FILE "14 - A Swan Is Born.wav" WAVE TRACK 14 AUDIO TITLE "A Swan Is Born" PERFORMER "Clint Mansell" FLAGS DCP INDEX 01 00:00:00FILE "C15 - Perfection.wav" WAVE TRACK 15 AUDIO TITLE "Perfection" PERFORMER "Clint Mansell" FLAGS DCP INDEX 01 00:00:00FILE "16 - A Swan Song (For Nina).wav" WAVE TRACK 16 AUDIO TITLE "A Swan Song (For Nina)" PERFORMER "Clint Mansell" FLAGS DCP INDEX 01 00:00:00


Трекер:  [ 27-Апр-2011 06:09 ]

  

Скачать .torrent

Размер .torrent файла 20 KB


Размер: 239 MB
Хэш (hash) релиза: 304722131fd43963a3fe6152758a8fd482123050

Торренты, похожие на Чёрный лебедь Black Swan скачать торрент

Форум Название Автор Размер S L Добавлен
Саундтреки к фильмам и мультфильмам (mp3) ·· [Soundtrack / Unofficial] Чёрный лебедь / Black Swan - 2010, MP3, 320 kbps Galfimbul 5431136552 MB 0 0 1448968292

14:11

1-Дек-15

Саундтреки к фильмам и мультфильмам (mp3) ·· (Score) Чёрный лебедь / Black Swan (by Clint Mansell) - 2010, MP3 (tracks), 320 kbps Mephis 128680898123 MB 0 0 1297932821

11:53

17-Фев-11

Еще никто не оставлял запись к записи скачать торрент Чёрный лебедь Black Swan . Будь первым!

!Обратная связь