Скачать через торрент музыку Кто я? Ngo si seoi бесплатно без регистрации torrent

Если у вас наблюдаются проблемы со скриншотами, переходом по ссылками, скачиванием торрентов - проблемы в блокировщике рекламы AdBlock. #хорошегоДня!


Статистика раздачи
Размер:  212 MB   |    Зарегистрирован:  1 год 10 месяцев   |    .torrent скачан:  15 раз   |   
Раздают:  1  
   
Загрузка...
 
Автор Сообщение

Galfimbul

avatar Galfimbul


Кто я? / Ngo si seoi (Who Am I?)

Жанр: Soundtrack
Композитор: Nathan Wang
Год выпуска диска: 1998

Аудиокодек: FLAC (*.flac)
Тип рипа: tracks+.cue
Битрейт аудио: lossless

Продолжительность: 00:36:05

Источник: скачано с сайта: music.runsang.asia

Треклист:
01. As The Story Goes (00:24)
02. I Belong to Mom 我是媽媽的(成龍版) (04:34) Narration: Jackie Chan / background vocal: Emil Chow
03. Who Am I ? (Mandarin) 我是誰(國語版) (03:29) Vocal: Emil Chow
04. Party! Party! (00:31)
05. Fight For Nothing (05:23)
06. Who Am I (English) (03:07) Vocal: Emil Chow
07. Turnover (00:27)
08. Trailer (01:33)
09. Who Am I (Cantonese) 我是誰(廣東版 成龍版) (03:30) Jackie Chan Version
10. Language From The Universe (00:29)
11. Who Am I 我是誰(抒情演奏版) (03:37)
12. Thank You (00:28)
13. Who Am I (Cantonese) 我是誰(廣東版 成龍NG版) (03:29) Vocal: Jackie Chan & Emil Chow
14. So The Story Ends (00:36)
15. I Belong to Mom 我是媽媽的(華健版) (04:22) Orchestral Version / background vocal: Emil Chow
REM GENRE SoundtrackREM DATE 1998REM DISCID AC08750FREM COMMENT "ExactAudioCopy v0.99pb4"PERFORMER "Various Artists"TITLE "Who Am I"FILE "01. As The Story Goes.flac" FLAC TRACK 01 AUDIO TITLE "As The Story Goes" PERFORMER "(Short spoken intro)" INDEX 01 00:00:00 TRACK 02 AUDIO TITLE "I Belong To Mom" PERFORMER "Jackie Chan / Emil Chow"FILE "02. I Belong To Mom.flac" FLAC INDEX 01 00:24:27 TRACK 03 AUDIO TITLE "Who Am I?" PERFORMER "Emil Chau" INDEX 00 04:55:69FILE "03. Who Am I.flac" FLAC INDEX 01 04:58:35 TRACK 04 AUDIO TITLE "Party!Party! (African drums)" PERFORMER "Nathan Wang"FILE "04. Party!Party! (African Drums).flac" FLAC INDEX 01 08:28:25 TRACK 05 AUDIO TITLE "Fight For Nothing (Orchestral instrumental)" PERFORMER "Nathan Wang"FILE "05. Fight For Nothing (Orchestral Instrumental).flac" FLAC INDEX 01 08:59:62 TRACK 06 AUDIO TITLE "Who Am I?" PERFORMER "Emil Chow"FILE "06. Who Am I.flac" FLAC INDEX 01 14:23:47 TRACK 07 AUDIO TITLE "Turnover (Short drum & guitar interlude)" PERFORMER "Nathan Wang"FILE "07. Turnover (Short Drum & Guitar Interlude).flac" FLAC INDEX 01 17:30:65 TRACK 08 AUDIO TITLE "Trailer" PERFORMER " "FILE "08. Trailer.flac" FLAC INDEX 01 17:58:37 TRACK 09 AUDIO TITLE "Who Am I?" PERFORMER "Jackie Chan" INDEX 00 19:31:09FILE "09. Who Am I.flac" FLAC INDEX 01 19:32:22 TRACK 10 AUDIO TITLE "Language From The Universe" PERFORMER "(Short spoken intro)"FILE "10. Language From The Universe.flac" FLAC INDEX 01 23:02:25 TRACK 11 AUDIO TITLE "Who Am I?" PERFORMER "Jackie Chan / Emil Chow"FILE "11. Who Am I.flac" FLAC INDEX 01 23:31:52 TRACK 12 AUDIO TITLE "Thank You" PERFORMER "(Short general radio commercial)"FILE "12. Thank You.flac" FLAC INDEX 01 27:09:07 TRACK 13 AUDIO TITLE "Who Am I?" PERFORMER "Jackie Chan & Emil Chau"FILE "13. Who Am I.flac" FLAC INDEX 01 27:37:32 TRACK 14 AUDIO TITLE "So The Story Ends" PERFORMER "(Short spoken track)"FILE "14. So The Story Ends.flac" FLAC INDEX 01 31:06:42 TRACK 15 AUDIO TITLE "I Belong to Mom (Orchestral version)" PERFORMER "Emil Chau" INDEX 00 31:38:23FILE "15. I Belong to Mom (Orchestral Version).flac" FLAC INDEX 01 00:00:00
Лог создания рипа - отсутствует
03. Who Am I:


Трекер:  [ 14-Ноя-2015 22:30 ]

  

Скачать .torrent

Размер .torrent файла 18 KB


Размер: 212 MB
Хэш (hash) релиза: bb0bebdef8611ce74d9cb67803c301ba484510e1

Еще никто не оставлял запись к записи скачать торрент Кто я? Ngo si seoi . Будь первым!

!Обратная связь