Скачать через торрент музыку Удивительные странствия Геракла Hercules: The Legendary Journeys бесплатно без регистрации torrent

Если у вас наблюдаются проблемы со скриншотами, переходом по ссылками, скачиванием торрентов - проблемы в блокировщике рекламы AdBlock. #хорошегоДня!


Статистика раздачи
Размер:  277 MB   |    Зарегистрирован:  1 год 10 месяцев   |    .torrent скачан:  35 раз   |   
Раздают:  1  
   
Загрузка...
 
Автор Сообщение

Galfimbul

avatar Galfimbul


Удивительные странствия Геракла / Hercules: The Legendary Journeys

Жанр: Score
Композитор: Joseph LoDuca

Год выпуска диска: 1995
Год выпуска фильма: 1994 (сериалу предшествовали 5 пилотных фильмов); 1995-1999 (сериал)

Издатель (лейбл): Varèse Sarabande
Номер по каталогу: VSD-5660

Аудиокодек: FLAC (*.flac)
Тип рипа: tracks+.cue
Битрейт аудио: lossless

Продолжительность: 01:03:48

Источник: what.cd; релизер: SоulTornаdо;
Наличие сканов в содержимом раздачи: нет

Треклист:
Hercules And The Circle Of Fire
01. Main Title
02. Hail, Hercules
03. Fight In Hera's Temple
04. Phaedra
05. House Of Prometheus
06. More Time / Tickle
07. The Circle Of Fire
08. Zeus Vs. Hercules
09. The Cure

Hercules And The Lost Kingdom
10. The Runners Part 1
11. The Runners Part 2
12. Destiny Theme
13. Battle With The Blue Priest
14. The Slave Bar
15. First You Then Stew
16. The Runner Arrives
17. The Cowherds Way
18. A New Dawn

Hercules And The Amazon Women
19. Hercules Fanfare
20. Prologue
21. Preparing For Battle
22. Battle With The Beast
23. Journey To Gargarencia
24. The Escape
25. Battle With Hera
26. Hippolyta

Hercules In The Underworld
27. Iole
28. The Chasm
29. Alien Cloak
30. Forked Tongues
31. The Old Woman
32. Cerberus
33. Delirious Deianeira
34. End Title
Exact Audio Copy V1.0 beta 4 from 7. December 2014

EAC extraction logfile from 6. March 2015, 23:05

Joseph LoDuca / Hercules: The Legendary Journeys (OST)

Used drive : hp DVDRAM GT50N Adapter: 1 ID: 0

Read mode : SecureUtilize accurate stream : YesDefeat audio cache : YesMake use of C2 pointers : No

Read offset correction : 103Overread into Lead-In and Lead-Out : NoFill up missing offset samples with silence : YesDelete leading and trailing silent blocks : NoNull samples used in CRC calculations : YesUsed interface : Native Win32 interface for Win NT & 2000Gap handling : Appended to previous track

Used output format : User Defined EncoderSelected bitrate : 128 kBit/sQuality : HighAdd ID3 tag : NoCommand line compressor : C:\Program Files (x86)\Exact Audio Copy\Flac\flac.exeAdditional command line options : -8 -V -T "ARTIST=%artist%" -T "TITLE=%title%" -T "ALBUM=%albumtitle%" -T "DATE=%year%" -T "TRACKNUMBER=%tracknr%" -T "GENRE=%genre%" -T "PERFORMER=%albuminterpret%" -T "COMPOSER=%composer%" %haslyrics%--tag-from-file=LYRICS="%lyricsfile%"%haslyrics% -T "ALBUMARTIST=%albumartist%" -T "DISCNUMBER=%cdnumber%" -T "TOTALDISCS=%totalcds%" -T "TOTALTRACKS=%numtracks%" -T "COMMENT=%comment%" %source% -o %dest%

TOC of the extracted CD

Track | Start | Length | Start sector | End sector --------------------------------------------------------- 1 | 0:00.00 | 1:04.33 | 0 | 4832 2 | 1:04.33 | 1:10.55 | 4833 | 10137 3 | 2:15.13 | 1:52.12 | 10138 | 18549 4 | 4:07.25 | 3:03.68 | 18550 | 32342 5 | 7:11.18 | 1:19.42 | 32343 | 38309 6 | 8:30.60 | 2:21.58 | 38310 | 48942 7 | 10:52.43 | 1:32.47 | 48943 | 55889 8 | 12:25.15 | 1:55.60 | 55890 | 64574 9 | 14:21.00 | 3:16.38 | 64575 | 79312 10 | 17:37.38 | 1:27.60 | 79313 | 85897 11 | 19:05.23 | 0:56.10 | 85898 | 90107 12 | 20:01.33 | 3:02.45 | 90108 | 103802 13 | 23:04.03 | 3:14.60 | 103803 | 118412 14 | 26:18.63 | 1:25.47 | 118413 | 124834 15 | 27:44.35 | 1:32.30 | 124835 | 131764 16 | 29:16.65 | 1:11.70 | 131765 | 137159 17 | 30:28.60 | 1:31.10 | 137160 | 143994 18 | 31:59.70 | 2:59.65 | 143995 | 157484 19 | 34:59.60 | 0:32.28 | 157485 | 159912 20 | 35:32.13 | 1:47.40 | 159913 | 167977 21 | 37:19.53 | 2:44.57 | 167978 | 180334 22 | 40:04.35 | 1:39.73 | 180335 | 187832 23 | 41:44.33 | 1:42.10 | 187833 | 195492 24 | 43:26.43 | 1:17.37 | 195493 | 201304 25 | 44:44.05 | 2:47.60 | 201305 | 213889 26 | 47:31.65 | 2:11.33 | 213890 | 223747 27 | 49:43.23 | 2:32.37 | 223748 | 235184 28 | 52:15.60 | 1:56.63 | 235185 | 243947 29 | 54:12.48 | 1:52.55 | 243948 | 252402 30 | 56:05.28 | 1:56.32 | 252403 | 261134 31 | 58:01.60 | 1:50.23 | 261135 | 269407 32 | 59:52.08 | 1:33.60 | 269408 | 276442 33 | 61:25.68 | 1:16.52 | 276443 | 282194 34 | 62:42.45 | 1:06.05 | 282195 | 287149

Track 1

Filename C:\EAC Rips\Joseph LoDuca\(1995) Hercules- The Legendary Journeys (OST)\01 - Main Title.wav

Pre-gap length 0:00:02.00

Peak level 80.5 % Extraction speed 0.8 X Track quality 100.0 % Test CRC 5AAC91C8 Copy CRC 5AAC91C8 Accurately ripped (confidence 4) [87B71DD4] (AR v2) Copy OK

Track 2

Filename C:\EAC Rips\Joseph LoDuca\(1995) Hercules- The Legendary Journeys (OST)\02 - Hail Hercules.wav

Peak level 59.9 % Extraction speed 0.7 X Track quality 99.8 % Test CRC 198999F8 Copy CRC 198999F8 Accurately ripped (confidence 4) [1AA0B3A4] (AR v2) Copy OK

Track 3

Filename C:\EAC Rips\Joseph LoDuca\(1995) Hercules- The Legendary Journeys (OST)\03 - Fight In Hera's Temple.wav

Peak level 93.9 % Extraction speed 1.1 X Track quality 100.0 % Test CRC 93597F85 Copy CRC 93597F85 Accurately ripped (confidence 4) [AECEF110] (AR v2) Copy OK

Track 4

Filename C:\EAC Rips\Joseph LoDuca\(1995) Hercules- The Legendary Journeys (OST)\04 - Phaedra.wav

Peak level 86.4 % Extraction speed 1.1 X Track quality 99.9 % Test CRC 358CCB26 Copy CRC 358CCB26 Accurately ripped (confidence 4) [59F60AD2] (AR v2) Copy OK

Track 5

Filename C:\EAC Rips\Joseph LoDuca\(1995) Hercules- The Legendary Journeys (OST)\05 - House Of Prometheus.wav

Peak level 60.6 % Extraction speed 1.1 X Track quality 100.0 % Test CRC 9C54EA4A Copy CRC 9C54EA4A Accurately ripped (confidence 4) [DB422E0F] (AR v2) Copy OK

Track 6

Filename C:\EAC Rips\Joseph LoDuca\(1995) Hercules- The Legendary Journeys (OST)\06 - Tickle.wav

Peak level 89.3 % Extraction speed 1.1 X Track quality 99.9 % Test CRC 8E4EDA1B Copy CRC 8E4EDA1B Accurately ripped (confidence 4) [34560B12] (AR v2) Copy OK

Track 7

Filename C:\EAC Rips\Joseph LoDuca\(1995) Hercules- The Legendary Journeys (OST)\07 - The Circle Of Fire.wav

Peak level 82.4 % Extraction speed 0.9 X Track quality 99.8 % Test CRC 4615DC7C Copy CRC 4615DC7C Accurately ripped (confidence 4) [E7604A77] (AR v2) Copy OK

Track 8

Filename C:\EAC Rips\Joseph LoDuca\(1995) Hercules- The Legendary Journeys (OST)\08 - Zeus Vs. Hercules.wav

Peak level 92.5 % Extraction speed 1.3 X Track quality 100.0 % Test CRC 361CA1E1 Copy CRC 361CA1E1 Accurately ripped (confidence 4) [E3F2E2AC] (AR v2) Copy OK

Track 9

Filename C:\EAC Rips\Joseph LoDuca\(1995) Hercules- The Legendary Journeys (OST)\09 - The Cure.wav

Peak level 87.7 % Extraction speed 1.4 X Track quality 99.9 % Test CRC 10D0087D Copy CRC 10D0087D Accurately ripped (confidence 4) [C61C80A1] (AR v2) Copy OK

Track 10

Filename C:\EAC Rips\Joseph LoDuca\(1995) Hercules- The Legendary Journeys (OST)\10 - The Runners Part 1.wav

Pre-gap length 0:00:04.06

Peak level 81.6 % Extraction speed 1.4 X Track quality 100.0 % Test CRC 15D5E8C1 Copy CRC 15D5E8C1 Accurately ripped (confidence 4) [EBCEB704] (AR v2) Copy OK

Track 11

Filename C:\EAC Rips\Joseph LoDuca\(1995) Hercules- The Legendary Journeys (OST)\11 - The Runners Part 2.wav

Peak level 79.9 % Extraction speed 1.2 X Track quality 100.0 % Test CRC 11217A16 Copy CRC 11217A16 Accurately ripped (confidence 4) [7D95A31D] (AR v2) Copy OK

Track 12

Filename C:\EAC Rips\Joseph LoDuca\(1995) Hercules- The Legendary Journeys (OST)\12 - Destiny Theme.wav

Peak level 64.8 % Extraction speed 1.5 X Track quality 99.9 % Test CRC 48A8F624 Copy CRC 48A8F624 Accurately ripped (confidence 4) [E355F25B] (AR v2) Copy OK

Track 13

Filename C:\EAC Rips\Joseph LoDuca\(1995) Hercules- The Legendary Journeys (OST)\13 - Battle With The Blue Priest.wav

Peak level 80.0 % Extraction speed 1.8 X Track quality 100.0 % Test CRC D71FA8F6 Copy CRC D71FA8F6 Accurately ripped (confidence 4) [4448CE42] (AR v2) Copy OK

Track 14

Filename C:\EAC Rips\Joseph LoDuca\(1995) Hercules- The Legendary Journeys (OST)\14 - The Slave Bar.wav

Peak level 77.2 % Extraction speed 1.2 X Track quality 99.8 % Test CRC DFBEE413 Copy CRC DFBEE413 Accurately ripped (confidence 4) [48A5D620] (AR v2) Copy OK

Track 15

Filename C:\EAC Rips\Joseph LoDuca\(1995) Hercules- The Legendary Journeys (OST)\15 - First You Then Stew.wav

Peak level 81.6 % Extraction speed 1.6 X Track quality 100.0 % Test CRC D50EBC90 Copy CRC D50EBC90 Accurately ripped (confidence 4) [84D258A2] (AR v2) Copy OK

Track 16

Filename C:\EAC Rips\Joseph LoDuca\(1995) Hercules- The Legendary Journeys (OST)\16 - The Runner Arrives.wav

Peak level 80.6 % Extraction speed 1.5 X Track quality 100.0 % Test CRC 8245A3E8 Copy CRC 8245A3E8 Accurately ripped (confidence 4) [16A0282D] (AR v2) Copy OK

Track 17

Filename C:\EAC Rips\Joseph LoDuca\(1995) Hercules- The Legendary Journeys (OST)\17 - The Cowheards Way.wav

Peak level 64.8 % Extraction speed 1.7 X Track quality 100.0 % Test CRC 8034D3DD Copy CRC 8034D3DD Accurately ripped (confidence 4) [4ED1FE9C] (AR v2) Copy OK

Track 18

Filename C:\EAC Rips\Joseph LoDuca\(1995) Hercules- The Legendary Journeys (OST)\18 - A New Dawn.wav

Peak level 81.4 % Extraction speed 1.9 X Track quality 100.0 % Test CRC 8EB26466 Copy CRC 8EB26466 Accurately ripped (confidence 4) [1B280DF2] (AR v2) Copy OK

Track 19

Filename C:\EAC Rips\Joseph LoDuca\(1995) Hercules- The Legendary Journeys (OST)\19 - Hercules Fanfare.wav

Pre-gap length 0:00:02.53

Peak level 85.6 % Extraction speed 1.1 X Track quality 100.0 % Test CRC 3B9E4D5B Copy CRC 3B9E4D5B Accurately ripped (confidence 4) [FB35CFCF] (AR v2) Copy OK

Track 20

Filename C:\EAC Rips\Joseph LoDuca\(1995) Hercules- The Legendary Journeys (OST)\20 - Prologue.wav

Peak level 82.6 % Extraction speed 1.4 X Track quality 99.9 % Test CRC 8E12A931 Copy CRC 8E12A931 Accurately ripped (confidence 4) [F8DC2BA8] (AR v2) Copy OK

Track 21

Filename C:\EAC Rips\Joseph LoDuca\(1995) Hercules- The Legendary Journeys (OST)\21 - Preparing For Battle.wav

Peak level 86.5 % Extraction speed 2.1 X Track quality 100.0 % Test CRC 0ADF2DB0 Copy CRC 0ADF2DB0 Accurately ripped (confidence 4) [A9B233B6] (AR v2) Copy OK

Track 22

Filename C:\EAC Rips\Joseph LoDuca\(1995) Hercules- The Legendary Journeys (OST)\22 - Battle With The Beast.wav

Peak level 83.2 % Extraction speed 1.8 X Track quality 100.0 % Test CRC 00268313 Copy CRC 00268313 Accurately ripped (confidence 4) [3CFDC57C] (AR v2) Copy OK

Track 23

Filename C:\EAC Rips\Joseph LoDuca\(1995) Hercules- The Legendary Journeys (OST)\23 - Journey To Gargarencia.wav

Peak level 81.3 % Extraction speed 1.9 X Track quality 100.0 % Test CRC 663460F3 Copy CRC 663460F3 Accurately ripped (confidence 4) [33320A3C] (AR v2) Copy OK

Track 24

Filename C:\EAC Rips\Joseph LoDuca\(1995) Hercules- The Legendary Journeys (OST)\24 - The Escape.wav

Peak level 40.8 % Extraction speed 1.8 X Track quality 100.0 % Test CRC 8E87AAC7 Copy CRC 8E87AAC7 Accurately ripped (confidence 4) [F5A9C9A3] (AR v2) Copy OK

Track 25

Filename C:\EAC Rips\Joseph LoDuca\(1995) Hercules- The Legendary Journeys (OST)\25 - Battle With Hera.wav

Peak level 86.5 % Extraction speed 2.2 X Track quality 100.0 % Test CRC CA1968F6 Copy CRC CA1968F6 Accurately ripped (confidence 4) [E32B1D4F] (AR v2) Copy OK

Track 26

Filename C:\EAC Rips\Joseph LoDuca\(1995) Hercules- The Legendary Journeys (OST)\26 - Hyppolyta.wav

Pre-gap length 0:00:00.01

Peak level 70.7 % Extraction speed 1.7 X Track quality 99.9 % Test CRC E6302F88 Copy CRC E6302F88 Accurately ripped (confidence 4) [2CB4C144] (AR v2) Copy OK

Track 27

Filename C:\EAC Rips\Joseph LoDuca\(1995) Hercules- The Legendary Journeys (OST)\27 - Iole.wav

Pre-gap length 0:00:04.44

Peak level 77.4 % Extraction speed 2.2 X Track quality 100.0 % Test CRC 00F1A2A6 Copy CRC 00F1A2A6 Accurately ripped (confidence 4) [4970B516] (AR v2) Copy OK

Track 28

Filename C:\EAC Rips\Joseph LoDuca\(1995) Hercules- The Legendary Journeys (OST)\28 - The Chasm.wav

Pre-gap length 0:00:00.01

Peak level 79.1 % Extraction speed 1.7 X Track quality 99.9 % Test CRC 0D62FDDA Copy CRC 0D62FDDA Accurately ripped (confidence 4) [FA1A7BF5] (AR v2) Copy OK

Track 29

Filename C:\EAC Rips\Joseph LoDuca\(1995) Hercules- The Legendary Journeys (OST)\29 - Alien Cloak.wav

Peak level 72.1 % Extraction speed 2.1 X Track quality 100.0 % Test CRC 6025B6B2 Copy CRC 6025B6B2 Accurately ripped (confidence 4) [D6B876E2] (AR v2) Copy OK

Track 30

Filename C:\EAC Rips\Joseph LoDuca\(1995) Hercules- The Legendary Journeys (OST)\30 - Forked Tongues.wav

Peak level 78.3 % Extraction speed 2.1 X Track quality 100.0 % Test CRC E18E1F63 Copy CRC E18E1F63 Accurately ripped (confidence 4) [B0516102] (AR v2) Copy OK

Track 31

Filename C:\EAC Rips\Joseph LoDuca\(1995) Hercules- The Legendary Journeys (OST)\31 - The Old Woman.wav

Peak level 54.1 % Extraction speed 2.2 X Track quality 100.0 % Test CRC 58FFE13E Copy CRC 58FFE13E Accurately ripped (confidence 4) [70E997AF] (AR v2) Copy OK

Track 32

Filename C:\EAC Rips\Joseph LoDuca\(1995) Hercules- The Legendary Journeys (OST)\32 - Cerberus.wav

Peak level 78.5 % Extraction speed 2.0 X Track quality 100.0 % Test CRC 9EA2FD8B Copy CRC 9EA2FD8B Accurately ripped (confidence 4) [35CB0E75] (AR v2) Copy OK

Track 33

Filename C:\EAC Rips\Joseph LoDuca\(1995) Hercules- The Legendary Journeys (OST)\33 - Delirious Deianeira.wav

Pre-gap length 0:00:00.01

Peak level 79.9 % Extraction speed 1.5 X Track quality 99.8 % Test CRC 5AB39198 Copy CRC 5AB39198 Accurately ripped (confidence 4) [76C9E4F6] (AR v2) Copy OK

Track 34

Filename C:\EAC Rips\Joseph LoDuca\(1995) Hercules- The Legendary Journeys (OST)\34 - End Title.wav

Peak level 81.6 % Extraction speed 1.4 X Track quality 99.8 % Test CRC 1969451E Copy CRC 1969451E Accurately ripped (confidence 4) [00C9DCB2] (AR v2) Copy OK

All tracks accurately ripped

No errors occurred

End of status report

---- CUETools DB Plugin V2.1.4

[CTDB TOCID: OcAeZUGHvSkEm8k3cNDhV37O41o-] foundSubmit result: OcAeZUGHvSkEm8k3cNDhV37O41o- has been confirmedTrack | CTDB Status 1 | (5/5) Accurately ripped 2 | (5/5) Accurately ripped 3 | (5/5) Accurately ripped 4 | (5/5) Accurately ripped 5 | (5/5) Accurately ripped 6 | (5/5) Accurately ripped 7 | (5/5) Accurately ripped 8 | (5/5) Accurately ripped 9 | (5/5) Accurately ripped 10 | (5/5) Accurately ripped 11 | (5/5) Accurately ripped 12 | (5/5) Accurately ripped 13 | (5/5) Accurately ripped 14 | (5/5) Accurately ripped 15 | (5/5) Accurately ripped 16 | (5/5) Accurately ripped 17 | (5/5) Accurately ripped 18 | (5/5) Accurately ripped 19 | (5/5) Accurately ripped 20 | (5/5) Accurately ripped 21 | (5/5) Accurately ripped 22 | (5/5) Accurately ripped 23 | (5/5) Accurately ripped 24 | (5/5) Accurately ripped 25 | (5/5) Accurately ripped 26 | (5/5) Accurately ripped 27 | (5/5) Accurately ripped 28 | (5/5) Accurately ripped 29 | (5/5) Accurately ripped 30 | (5/5) Accurately ripped 31 | (4/5) Accurately ripped 32 | (4/5) Accurately ripped 33 | (5/5) Accurately ripped 34 | (5/5) Accurately ripped

==== Log checksum 2E92E4E139FFEE0351CF73CA2BBC131E28B6C2C37B889D44E65965B58564CDCF ====
REM GENRE SoundtrackREM DATE 1995REM DISCID F20EF422REM COMMENT "ExactAudioCopy v1.0b4"PERFORMER "Joseph LoDuca"TITLE "Hercules: The Legendary Journeys (OST)"FILE "01 - Main Title.flac" WAVE TRACK 01 AUDIO TITLE "Main Title" PERFORMER "Joseph LoDuca" INDEX 01 00:00:00FILE "02 - Hail, Hercules.flac" WAVE TRACK 02 AUDIO TITLE "Hail Hercules" PERFORMER "Joseph LoDuca" INDEX 01 00:00:00FILE "03 - Fight In Hera's Temple.flac" WAVE TRACK 03 AUDIO TITLE "Fight In Hera's Temple" PERFORMER "Joseph LoDuca" INDEX 01 00:00:00FILE "04 - Phaedra.flac" WAVE TRACK 04 AUDIO TITLE "Phaedra" PERFORMER "Joseph LoDuca" INDEX 01 00:00:00FILE "05 - House Of Prometheus.flac" WAVE TRACK 05 AUDIO TITLE "House Of Prometheus" PERFORMER "Joseph LoDuca" INDEX 01 00:00:00FILE "06 - More Time Tickle.flac" WAVE TRACK 06 AUDIO TITLE "Tickle" PERFORMER "More Time" INDEX 01 00:00:00FILE "07 - The Circle Of Fire.flac" WAVE TRACK 07 AUDIO TITLE "The Circle Of Fire" PERFORMER "Joseph LoDuca" INDEX 01 00:00:00FILE "08 - Zeus Vs. Hercules.flac" WAVE TRACK 08 AUDIO TITLE "Zeus Vs. Hercules" PERFORMER "Joseph LoDuca" INDEX 01 00:00:00FILE "09 - The Cure.flac" WAVE TRACK 09 AUDIO TITLE "The Cure" PERFORMER "Joseph LoDuca" INDEX 01 00:00:00 TRACK 10 AUDIO TITLE "The Runners Part 1" PERFORMER "Joseph LoDuca" INDEX 00 03:12:33FILE "10 - The Runners Part 1.flac" WAVE INDEX 01 00:00:00FILE "11 - The Runners Part 2.flac" WAVE TRACK 11 AUDIO TITLE "The Runners Part 2" PERFORMER "Joseph LoDuca" INDEX 01 00:00:00FILE "12 - Destiny Theme.flac" WAVE TRACK 12 AUDIO TITLE "Destiny Theme" PERFORMER "Joseph LoDuca" INDEX 01 00:00:00FILE "13 - Battle With The Blue Priest.flac" WAVE TRACK 13 AUDIO TITLE "Battle With The Blue Priest" PERFORMER "Joseph LoDuca" INDEX 01 00:00:00FILE "14 - The Slave Bar.flac" WAVE TRACK 14 AUDIO TITLE "The Slave Bar" PERFORMER "Joseph LoDuca" INDEX 01 00:00:00FILE "15 - First You Then Stew.flac" WAVE TRACK 15 AUDIO TITLE "First You Then Stew" PERFORMER "Joseph LoDuca" INDEX 01 00:00:00FILE "16 - The Runner Arrives.flac" WAVE TRACK 16 AUDIO TITLE "The Runner Arrives" PERFORMER "Joseph LoDuca" INDEX 01 00:00:00FILE "17 - The Cowheards Way.flac" WAVE TRACK 17 AUDIO TITLE "The Cowheards Way" PERFORMER "Joseph LoDuca" INDEX 01 00:00:00FILE "18 - A New Dawn.flac" WAVE TRACK 18 AUDIO TITLE "A New Dawn" PERFORMER "Joseph LoDuca" INDEX 01 00:00:00 TRACK 19 AUDIO TITLE "Hercules Fanfare" PERFORMER "Joseph LoDuca" INDEX 00 02:57:25FILE "19 - Hercules Fanfare.flac" WAVE INDEX 01 00:00:00FILE "20 - Prologue.flac" WAVE TRACK 20 AUDIO TITLE "Prologue" PERFORMER "Joseph LoDuca" INDEX 01 00:00:00FILE "21 - Preparing For Battle.flac" WAVE TRACK 21 AUDIO TITLE "Preparing For Battle" PERFORMER "Joseph LoDuca" INDEX 01 00:00:00FILE "22 - Battle With The Beast.flac" WAVE TRACK 22 AUDIO TITLE "Battle With The Beast" PERFORMER "Joseph LoDuca" INDEX 01 00:00:00FILE "23 - Journey To Gargarencia.flac" WAVE TRACK 23 AUDIO TITLE "Journey To Gargarencia" PERFORMER "Joseph LoDuca" INDEX 01 00:00:00FILE "24 - The Escape.flac" WAVE TRACK 24 AUDIO TITLE "The Escape" PERFORMER "Joseph LoDuca" INDEX 01 00:00:00FILE "25 - Battle With Hera.flac" WAVE TRACK 25 AUDIO TITLE "Battle With Hera" PERFORMER "Joseph LoDuca" INDEX 01 00:00:00 TRACK 26 AUDIO TITLE "Hyppolyta" PERFORMER "Joseph LoDuca" INDEX 00 02:47:59FILE "26 - Hyppolyta.flac" WAVE INDEX 01 00:00:00 TRACK 27 AUDIO TITLE "Iole" PERFORMER "Joseph LoDuca" INDEX 00 02:07:00FILE "27 - Iole.flac" WAVE INDEX 01 00:00:00 TRACK 28 AUDIO TITLE "The Chasm" PERFORMER "Joseph LoDuca" INDEX 00 02:32:36FILE "28 - The Chasm.flac" WAVE INDEX 01 00:00:00FILE "29 - Alien Cloak.flac" WAVE TRACK 29 AUDIO TITLE "Alien Cloak" PERFORMER "Joseph LoDuca" INDEX 01 00:00:00FILE "30 - Forked Tongues.flac" WAVE TRACK 30 AUDIO TITLE "Forked Tongues" PERFORMER "Joseph LoDuca" INDEX 01 00:00:00FILE "31 - The Old Woman.flac" WAVE TRACK 31 AUDIO TITLE "The Old Woman" PERFORMER "Joseph LoDuca" INDEX 01 00:00:00FILE "32 - Cerberus.flac" WAVE TRACK 32 AUDIO TITLE "Cerberus" PERFORMER "Joseph LoDuca" INDEX 01 00:00:00 TRACK 33 AUDIO TITLE "Delirious Deianeira" PERFORMER "Joseph LoDuca" INDEX 00 01:33:59FILE "33 - Delirious Deianeira.flac" WAVE INDEX 01 00:00:00FILE "34 - End Title.flac" WAVE TRACK 34 AUDIO TITLE "End Title" PERFORMER "Joseph LoDuca" INDEX 01 00:00:00


Трекер:  [ 14-Ноя-2015 17:30 ]

  

Скачать .torrent

Размер .torrent файла 13 KB


Размер: 277 MB
Хэш (hash) релиза: 1aedeeaeeef18a7d644c1db5f76761517c6e2c8a

Еще никто не оставлял запись к записи скачать торрент Удивительные странствия Геракла Hercules: The Legendary Journeys . Будь первым!

!Обратная связь