Скачать через торрент музыку Инспектор Гаджет Inspecteur Gadget бесплатно без регистрации torrent

Если у вас наблюдаются проблемы со скриншотами, переходом по ссылками, скачиванием торрентов - проблемы в блокировщике рекламы AdBlock. #хорошегоДня!


Статистика раздачи
Размер:  339 MB   |    Зарегистрирован:  1 год 10 месяцев   |    .torrent скачан:  19 раз   |   
Раздают:  1  
   
Загрузка...
 
Автор Сообщение

Galfimbul

avatar Galfimbul


Инспектор Гаджет / Inspecteur Gadget

Название альбома: Télé 80: Inspecteur Gadget (Edition Speciale)
Жанр: Score

Композитор: Haim Saban и Shuki Levy

Год выпуска диска: 2013
Год выпуска фильма: 1983-1986
Страна-производитель диска: France
Издатель (лейбл): Balthazar Music
Номер по каталогу: 875824 SC 842

Аудиокодек: FLAC (*.flac)
Тип рипа: tracks+.cue
Битрейт аудио: lossless
Продолжительность: 00:53:43

Источник: what.cd; релизер: Sеiсz;
Наличие сканов в содержимом раздачи: да

Треклист:
01. Inspecteur Gadget
02. La Chanson de Finot
03. Le Thème de Sophie
04. Gadget sur Mars
05. Le Fantôme
06. Musée de l’Art Fou
07. Gadget au Japon
08. L’usine de Chocolats
09. Rodéo
10. Thème du Dr Gang
11. Héros dans la Jungle Africaine
12. Gadget chez les Incas
13. Fais Gaffe
14. Gadget en Difficulté
15. Désert d’Arabie
16. Gadget le Sophistiqué
17. Thème du Train
18. Le Royaume
19. La Course de Voitures
20. Les Pharaons
21. Le Thème de Finot
22. Gadget en Italie
23. Thème du Dr Gang (Reprise)
24. Thème d’Ouverture (Instrumental)
25. Le Thème de Sophie (Instrumental)
26. Inspecteur Gadget (Version TV)
27. Inspector Gadget (Opening TV)
28. Inspector Gadget (Ending TV)
29. Inspecteur Gadget (Générique du Film)
30. Inspector Gadget Theme
Exact Audio Copy V1.0 beta 3 from 29. August 2011

EAC extraction logfile from 30. January 2014, 10:46

Shuki Levy & Haim Saban / Télé 80: Inspecteur Gadget (Edition Speciale)

Used drive : HL-DT-STBD-RE BH16NS40 Adapter: 4 ID: 0

Read mode : SecureUtilize accurate stream : YesDefeat audio cache : YesMake use of C2 pointers : No

Read offset correction : 6Overread into Lead-In and Lead-Out : NoFill up missing offset samples with silence : YesDelete leading and trailing silent blocks : NoNull samples used in CRC calculations : YesUsed interface : Native Win32 interface for Win NT & 2000Gap handling : Appended to previous track

Used output format : User Defined EncoderSelected bitrate : 1024 kBit/sQuality : HighAdd ID3 tag : NoCommand line compressor : C:\Program Files (x86)\foobar2000\flac.exeAdditional command line options : -8 -V -T "ARTIST=%artist%" -T "TITLE=%title%" -T "ALBUM=%albumtitle%" -T "DATE=%year%" -T "TRACKNUMBER=%tracknr%" -T "GENRE=%genre%" -T "COMPOSER=%composer%" %haslyrics%--tag-from-file=LYRICS="%lyricsfile%"%haslyrics% -T "ALBUMARTIST=%albumartist%" -T "DISCNUMBER=%cdnumber%" -T "TOTALDISCS=%totalcds%" -T "TOTALTRACKS=%numtracks%" -T "COMMENT=%comment%" %source% -o %dest%

TOC of the extracted CD

Track | Start | Length | Start sector | End sector --------------------------------------------------------- 1 | 0:00.00 | 2:39.73 | 0 | 11997 2 | 2:39.73 | 2:03.56 | 11998 | 21278 3 | 4:43.54 | 2:32.33 | 21279 | 32711 4 | 7:16.12 | 1:33.34 | 32712 | 39720 5 | 8:49.46 | 1:56.72 | 39721 | 48492 6 | 10:46.43 | 2:20.23 | 48493 | 59015 7 | 13:06.66 | 2:07.32 | 59016 | 68572 8 | 15:14.23 | 2:03.12 | 68573 | 77809 9 | 17:17.35 | 1:39.15 | 77810 | 85249 10 | 18:56.50 | 2:14.35 | 85250 | 95334 11 | 21:11.10 | 1:54.73 | 95335 | 103957 12 | 23:06.08 | 1:00.58 | 103958 | 108515 13 | 24:06.66 | 1:36.15 | 108516 | 115730 14 | 25:43.06 | 1:14.28 | 115731 | 121308 15 | 26:57.34 | 1:18.28 | 121309 | 127186 16 | 28:15.62 | 1:37.41 | 127187 | 134502 17 | 29:53.28 | 1:58.72 | 134503 | 143424 18 | 31:52.25 | 2:02.29 | 143425 | 152603 19 | 33:54.54 | 1:16.38 | 152604 | 158341 20 | 35:11.17 | 1:34.65 | 158342 | 165456 21 | 36:46.07 | 1:12.72 | 165457 | 170928 22 | 37:59.04 | 1:07.66 | 170929 | 176019 23 | 39:06.70 | 2:14.12 | 176020 | 186081 24 | 41:21.07 | 1:17.30 | 186082 | 191886 25 | 42:38.37 | 2:32.32 | 191887 | 203318 26 | 45:10.69 | 1:16.21 | 203319 | 209039 27 | 46:27.15 | 1:17.46 | 209040 | 214860 28 | 47:44.61 | 0:46.10 | 214861 | 218320 29 | 48:30.71 | 2:29.37 | 218321 | 229532 30 | 51:00.33 | 2:43.38 | 229533 | 241795

Track 1

Filename C:\EAC\Télé 80꞉ Inspecteur Gadget (Edition Speciale) (2013) [FLAC] {Balthazar Music/Socadisc 875824 SC 842}\01 - Inspecteur Gadget.wav

Pre-gap length 0:00:02.00

Peak level 96.9 % Extraction speed 1.5 X Track quality 99.9 % Test CRC 7CA46871 Copy CRC 7CA46871 Track not present in AccurateRip database Copy OK

Track 2

Filename C:\EAC\Télé 80꞉ Inspecteur Gadget (Edition Speciale) (2013) [FLAC] {Balthazar Music/Socadisc 875824 SC 842}\02 - La Chanson de Finot.wav

Pre-gap length 0:00:02.00

Peak level 91.0 % Extraction speed 1.8 X Track quality 100.0 % Test CRC E3ED8ADC Copy CRC E3ED8ADC Track not present in AccurateRip database Copy OK

Track 3

Filename C:\EAC\Télé 80꞉ Inspecteur Gadget (Edition Speciale) (2013) [FLAC] {Balthazar Music/Socadisc 875824 SC 842}\03 - Le Thème de Sophie.wav

Pre-gap length 0:00:02.00

Peak level 90.2 % Extraction speed 1.1 X Track quality 100.0 % Test CRC A774BC0A Copy CRC A774BC0A Track not present in AccurateRip database Copy OK

Track 4

Filename C:\EAC\Télé 80꞉ Inspecteur Gadget (Edition Speciale) (2013) [FLAC] {Balthazar Music/Socadisc 875824 SC 842}\04 - Gadget sur Mars.wav

Pre-gap length 0:00:02.00

Peak level 96.4 % Extraction speed 1.0 X Track quality 100.0 % Test CRC 349F68BE Copy CRC 349F68BE Track not present in AccurateRip database Copy OK

Track 5

Filename C:\EAC\Télé 80꞉ Inspecteur Gadget (Edition Speciale) (2013) [FLAC] {Balthazar Music/Socadisc 875824 SC 842}\05 - Le Fantôme.wav

Pre-gap length 0:00:02.00

Peak level 70.5 % Extraction speed 1.1 X Track quality 100.0 % Test CRC 80398152 Copy CRC 80398152 Track not present in AccurateRip database Copy OK

Track 6

Filename C:\EAC\Télé 80꞉ Inspecteur Gadget (Edition Speciale) (2013) [FLAC] {Balthazar Music/Socadisc 875824 SC 842}\06 - Musée de l’Art Fou.wav

Pre-gap length 0:00:02.00

Peak level 85.3 % Extraction speed 1.2 X Track quality 100.0 % Test CRC 9B07DF36 Copy CRC 9B07DF36 Track not present in AccurateRip database Copy OK

Track 7

Filename C:\EAC\Télé 80꞉ Inspecteur Gadget (Edition Speciale) (2013) [FLAC] {Balthazar Music/Socadisc 875824 SC 842}\07 - Gadget au Japon.wav

Pre-gap length 0:00:02.00

Peak level 72.2 % Extraction speed 1.3 X Track quality 100.0 % Test CRC 2DF36851 Copy CRC 2DF36851 Track not present in AccurateRip database Copy OK

Track 8

Filename C:\EAC\Télé 80꞉ Inspecteur Gadget (Edition Speciale) (2013) [FLAC] {Balthazar Music/Socadisc 875824 SC 842}\08 - L’usine de Chocolats.wav

Pre-gap length 0:00:02.00

Peak level 89.1 % Extraction speed 1.0 X Track quality 99.9 % Test CRC 09B862F4 Copy CRC 09B862F4 Track not present in AccurateRip database Copy OK

Track 9

Filename C:\EAC\Télé 80꞉ Inspecteur Gadget (Edition Speciale) (2013) [FLAC] {Balthazar Music/Socadisc 875824 SC 842}\09 - Rodéo.wav

Pre-gap length 0:00:02.00

Peak level 76.7 % Extraction speed 1.3 X Track quality 100.0 % Test CRC 92F8B448 Copy CRC 92F8B448 Track not present in AccurateRip database Copy OK

Track 10

Filename C:\EAC\Télé 80꞉ Inspecteur Gadget (Edition Speciale) (2013) [FLAC] {Balthazar Music/Socadisc 875824 SC 842}\10 - Thème du Dr Gang.wav

Pre-gap length 0:00:02.00

Peak level 88.5 % Extraction speed 1.1 X Track quality 99.9 % Test CRC FECB7999 Copy CRC FECB7999 Track not present in AccurateRip database Copy OK

Track 11

Filename C:\EAC\Télé 80꞉ Inspecteur Gadget (Edition Speciale) (2013) [FLAC] {Balthazar Music/Socadisc 875824 SC 842}\11 - Héros dans la Jungle Africaine.wav

Pre-gap length 0:00:02.00

Peak level 85.2 % Extraction speed 1.4 X Track quality 100.0 % Test CRC 6BDA9156 Copy CRC 6BDA9156 Track not present in AccurateRip database Copy OK

Track 12

Filename C:\EAC\Télé 80꞉ Inspecteur Gadget (Edition Speciale) (2013) [FLAC] {Balthazar Music/Socadisc 875824 SC 842}\12 - Gadget chez les Incas.wav

Pre-gap length 0:00:02.00

Peak level 75.5 % Extraction speed 1.1 X Track quality 100.0 % Test CRC CE4FF92F Copy CRC CE4FF92F Track not present in AccurateRip database Copy OK

Track 13

Filename C:\EAC\Télé 80꞉ Inspecteur Gadget (Edition Speciale) (2013) [FLAC] {Balthazar Music/Socadisc 875824 SC 842}\13 - Fais Gaffe.wav

Pre-gap length 0:00:02.00

Peak level 90.8 % Extraction speed 1.4 X Track quality 100.0 % Test CRC AB5A3E71 Copy CRC AB5A3E71 Track not present in AccurateRip database Copy OK

Track 14

Filename C:\EAC\Télé 80꞉ Inspecteur Gadget (Edition Speciale) (2013) [FLAC] {Balthazar Music/Socadisc 875824 SC 842}\14 - Gadget en Difficulté.wav

Pre-gap length 0:00:02.00

Peak level 94.4 % Extraction speed 0.9 X Track quality 99.8 % Test CRC AF056F02 Copy CRC AF056F02 Track not present in AccurateRip database Copy OK

Track 15

Filename C:\EAC\Télé 80꞉ Inspecteur Gadget (Edition Speciale) (2013) [FLAC] {Balthazar Music/Socadisc 875824 SC 842}\15 - Désert d’Arabie.wav

Pre-gap length 0:00:02.00

Peak level 92.5 % Extraction speed 1.0 X Track quality 99.8 % Test CRC 51E6C27B Copy CRC 51E6C27B Track not present in AccurateRip database Copy OK

Track 16

Filename C:\EAC\Télé 80꞉ Inspecteur Gadget (Edition Speciale) (2013) [FLAC] {Balthazar Music/Socadisc 875824 SC 842}\16 - Gadget le Sophistiqué.wav

Pre-gap length 0:00:02.00

Peak level 93.4 % Extraction speed 1.5 X Track quality 100.0 % Test CRC 42BE96CF Copy CRC 42BE96CF Track not present in AccurateRip database Copy OK

Track 17

Filename C:\EAC\Télé 80꞉ Inspecteur Gadget (Edition Speciale) (2013) [FLAC] {Balthazar Music/Socadisc 875824 SC 842}\17 - Thème du Train.wav

Pre-gap length 0:00:02.00

Peak level 93.1 % Extraction speed 1.6 X Track quality 100.0 % Test CRC 43157682 Copy CRC 43157682 Track not present in AccurateRip database Copy OK

Track 18

Filename C:\EAC\Télé 80꞉ Inspecteur Gadget (Edition Speciale) (2013) [FLAC] {Balthazar Music/Socadisc 875824 SC 842}\18 - Le Royaume.wav

Pre-gap length 0:00:02.00

Peak level 77.1 % Extraction speed 1.6 X Track quality 100.0 % Test CRC 5E2126C8 Copy CRC 5E2126C8 Track not present in AccurateRip database Copy OK

Track 19

Filename C:\EAC\Télé 80꞉ Inspecteur Gadget (Edition Speciale) (2013) [FLAC] {Balthazar Music/Socadisc 875824 SC 842}\19 - La Course de Voitures.wav

Pre-gap length 0:00:02.00

Peak level 99.6 % Extraction speed 1.4 X Track quality 100.0 % Test CRC 510CBCCF Copy CRC 510CBCCF Track not present in AccurateRip database Copy OK

Track 20

Filename C:\EAC\Télé 80꞉ Inspecteur Gadget (Edition Speciale) (2013) [FLAC] {Balthazar Music/Socadisc 875824 SC 842}\20 - Les Pharaons.wav

Pre-gap length 0:00:02.00

Peak level 93.5 % Extraction speed 1.5 X Track quality 100.0 % Test CRC 522AA6C9 Copy CRC 522AA6C9 Track not present in AccurateRip database Copy OK

Track 21

Filename C:\EAC\Télé 80꞉ Inspecteur Gadget (Edition Speciale) (2013) [FLAC] {Balthazar Music/Socadisc 875824 SC 842}\21 - Le Thème de Finot.wav

Pre-gap length 0:00:02.00

Peak level 81.5 % Extraction speed 1.5 X Track quality 100.0 % Test CRC 44FF7981 Copy CRC 44FF7981 Track not present in AccurateRip database Copy OK

Track 22

Filename C:\EAC\Télé 80꞉ Inspecteur Gadget (Edition Speciale) (2013) [FLAC] {Balthazar Music/Socadisc 875824 SC 842}\22 - Gadget en Italie.wav

Pre-gap length 0:00:02.00

Peak level 76.3 % Extraction speed 1.4 X Track quality 100.0 % Test CRC 2D19853A Copy CRC 2D19853A Track not present in AccurateRip database Copy OK

Track 23

Filename C:\EAC\Télé 80꞉ Inspecteur Gadget (Edition Speciale) (2013) [FLAC] {Balthazar Music/Socadisc 875824 SC 842}\23 - Thème du Dr Gang (Reprise).wav

Pre-gap length 0:00:02.00

Peak level 72.6 % Extraction speed 1.7 X Track quality 100.0 % Test CRC C996AA8E Copy CRC C996AA8E Track not present in AccurateRip database Copy OK

Track 24

Filename C:\EAC\Télé 80꞉ Inspecteur Gadget (Edition Speciale) (2013) [FLAC] {Balthazar Music/Socadisc 875824 SC 842}\24 - Thème d’Ouverture (Instrumental).wav

Pre-gap length 0:00:02.00

Peak level 80.5 % Extraction speed 1.5 X Track quality 100.0 % Test CRC 3DBA2FFF Copy CRC 3DBA2FFF Track not present in AccurateRip database Copy OK

Track 25

Filename C:\EAC\Télé 80꞉ Inspecteur Gadget (Edition Speciale) (2013) [FLAC] {Balthazar Music/Socadisc 875824 SC 842}\25 - Le Thème de Sophie (Instrumental).wav

Pre-gap length 0:00:02.00

Peak level 87.7 % Extraction speed 1.8 X Track quality 100.0 % Test CRC 1C015B87 Copy CRC 1C015B87 Track not present in AccurateRip database Copy OK

Track 26

Filename C:\EAC\Télé 80꞉ Inspecteur Gadget (Edition Speciale) (2013) [FLAC] {Balthazar Music/Socadisc 875824 SC 842}\26 - Inspecteur Gadget (Version TV).wav

Pre-gap length 0:00:02.00

Peak level 96.9 % Extraction speed 1.6 X Track quality 100.0 % Test CRC A63FD274 Copy CRC A63FD274 Track not present in AccurateRip database Copy OK

Track 27

Filename C:\EAC\Télé 80꞉ Inspecteur Gadget (Edition Speciale) (2013) [FLAC] {Balthazar Music/Socadisc 875824 SC 842}\27 - Inspector Gadget (Opening TV).wav

Pre-gap length 0:00:02.00

Peak level 90.0 % Extraction speed 1.6 X Track quality 100.0 % Test CRC E1D28AFC Copy CRC E1D28AFC Track not present in AccurateRip database Copy OK

Track 28

Filename C:\EAC\Télé 80꞉ Inspecteur Gadget (Edition Speciale) (2013) [FLAC] {Balthazar Music/Socadisc 875824 SC 842}\28 - Inspector Gadget (Ending TV).wav

Pre-gap length 0:00:02.00

Peak level 65.9 % Extraction speed 0.8 X Track quality 99.7 % Test CRC 936B5CD0 Copy CRC 936B5CD0 Track not present in AccurateRip database Copy OK

Track 29

Filename C:\EAC\Télé 80꞉ Inspecteur Gadget (Edition Speciale) (2013) [FLAC] {Balthazar Music/Socadisc 875824 SC 842}\29 - Inspecteur Gadget (Générique du Film).wav

Pre-gap length 0:00:02.00

Peak level 92.9 % Extraction speed 1.9 X Track quality 100.0 % Test CRC B961DAEE Copy CRC B961DAEE Track not present in AccurateRip database Copy OK

Track 30

Filename C:\EAC\Télé 80꞉ Inspecteur Gadget (Edition Speciale) (2013) [FLAC] {Balthazar Music/Socadisc 875824 SC 842}\30 - Inspector Gadget Theme.wav

Pre-gap length 0:00:02.00

Peak level 68.9 % Extraction speed 2.0 X Track quality 100.0 % Test CRC D6B75639 Copy CRC D6B75639 Track not present in AccurateRip database Copy OK

None of the tracks are present in the AccurateRip database

No errors occurred

End of status report

---- CUETools DB Plugin V2.1.3

[CTDB TOCID: 9RsW.BkH6LFE1CmJh8g7jvnl474-] found, Submit result: 9RsW.BkH6LFE1CmJh8g7jvnl474- has been confirmed[a9ceca4d] (1/1) Accurately ripped

==== Log checksum B42403E340B9FA8D742FA3724FABBAC8703F09E3DB269713A450176012724F22 ====
REM GENRE SoundtrackREM DATE 2013REM DISCID C20C971EREM COMMENT "ExactAudioCopy v1.0b3"PERFORMER "Shuki Levy & Haim Saban"TITLE "Tйlй 80: Inspecteur Gadget (Edition Speciale)"FILE "01 - Inspecteur Gadget.wav" WAVE TRACK 01 AUDIO TITLE "Inspecteur Gadget" PERFORMER "Jacques Cardona" INDEX 01 00:00:00 TRACK 02 AUDIO TITLE "La Chanson de Finot" PERFORMER "Jacques Cardona" INDEX 00 02:37:73FILE "02 - La Chanson de Finot.wav" WAVE INDEX 01 00:00:00 TRACK 03 AUDIO TITLE "Le Thиme de Sophie" PERFORMER "Jacques Cardona" INDEX 00 02:01:56FILE "03 - Le Thиme de Sophie.wav" WAVE INDEX 01 00:00:00 TRACK 04 AUDIO TITLE "Gadget sur Mars" PERFORMER "Shuki Levy & Haim Saban" INDEX 00 02:30:33FILE "04 - Gadget sur Mars.wav" WAVE INDEX 01 00:00:00 TRACK 05 AUDIO TITLE "Le Fantфme" PERFORMER "Shuki Levy & Haim Saban" INDEX 00 01:31:34FILE "05 - Le Fantфme.wav" WAVE INDEX 01 00:00:00 TRACK 06 AUDIO TITLE "Musйe de l’Art Fou" PERFORMER "Shuki Levy & Haim Saban" INDEX 00 01:54:72FILE "06 - Musйe de l’Art Fou.wav" WAVE INDEX 01 00:00:00 TRACK 07 AUDIO TITLE "Gadget au Japon" PERFORMER "Shuki Levy & Haim Saban" INDEX 00 02:18:23FILE "07 - Gadget au Japon.wav" WAVE INDEX 01 00:00:00 TRACK 08 AUDIO TITLE "L’usine de Chocolats" PERFORMER "Shuki Levy & Haim Saban" INDEX 00 02:05:32FILE "08 - L’usine de Chocolats.wav" WAVE INDEX 01 00:00:00 TRACK 09 AUDIO TITLE "Rodйo" PERFORMER "Shuki Levy & Haim Saban" INDEX 00 02:01:12FILE "09 - Rodйo.wav" WAVE INDEX 01 00:00:00 TRACK 10 AUDIO TITLE "Thиme du Dr Gang" PERFORMER "Shuki Levy & Haim Saban" INDEX 00 01:37:15FILE "10 - Thиme du Dr Gang.wav" WAVE INDEX 01 00:00:00 TRACK 11 AUDIO TITLE "Hйros dans la Jungle Africaine" PERFORMER "Shuki Levy & Haim Saban" INDEX 00 02:12:35FILE "11 - Hйros dans la Jungle Africaine.wav" WAVE INDEX 01 00:00:00 TRACK 12 AUDIO TITLE "Gadget chez les Incas" PERFORMER "Shuki Levy & Haim Saban" INDEX 00 01:52:73FILE "12 - Gadget chez les Incas.wav" WAVE INDEX 01 00:00:00 TRACK 13 AUDIO TITLE "Fais Gaffe" PERFORMER "Shuki Levy & Haim Saban" INDEX 00 00:58:58FILE "13 - Fais Gaffe.wav" WAVE INDEX 01 00:00:00 TRACK 14 AUDIO TITLE "Gadget en Difficultй" PERFORMER "Shuki Levy & Haim Saban" INDEX 00 01:34:15FILE "14 - Gadget en Difficultй.wav" WAVE INDEX 01 00:00:00 TRACK 15 AUDIO TITLE "Dйsert d’Arabie" PERFORMER "Shuki Levy & Haim Saban" INDEX 00 01:12:28FILE "15 - Dйsert d’Arabie.wav" WAVE INDEX 01 00:00:00 TRACK 16 AUDIO TITLE "Gadget le Sophistiquй" PERFORMER "Shuki Levy & Haim Saban" INDEX 00 01:16:28FILE "16 - Gadget le Sophistiquй.wav" WAVE INDEX 01 00:00:00 TRACK 17 AUDIO TITLE "Thиme du Train" PERFORMER "Shuki Levy & Haim Saban" INDEX 00 01:35:41FILE "17 - Thиme du Train.wav" WAVE INDEX 01 00:00:00 TRACK 18 AUDIO TITLE "Le Royaume" PERFORMER "Shuki Levy & Haim Saban" INDEX 00 01:56:72FILE "18 - Le Royaume.wav" WAVE INDEX 01 00:00:00 TRACK 19 AUDIO TITLE "La Course de Voitures" PERFORMER "Shuki Levy & Haim Saban" INDEX 00 02:00:29FILE "19 - La Course de Voitures.wav" WAVE INDEX 01 00:00:00 TRACK 20 AUDIO TITLE "Les Pharaons" PERFORMER "Shuki Levy & Haim Saban" INDEX 00 01:14:38FILE "20 - Les Pharaons.wav" WAVE INDEX 01 00:00:00 TRACK 21 AUDIO TITLE "Le Thиme de Finot" PERFORMER "Shuki Levy & Haim Saban" INDEX 00 01:32:65FILE "21 - Le Thиme de Finot.wav" WAVE INDEX 01 00:00:00 TRACK 22 AUDIO TITLE "Gadget en Italie" PERFORMER "Shuki Levy & Haim Saban" INDEX 00 01:10:72FILE "22 - Gadget en Italie.wav" WAVE INDEX 01 00:00:00 TRACK 23 AUDIO TITLE "Thиme du Dr Gang (Reprise)" PERFORMER "Shuki Levy & Haim Saban" INDEX 00 01:05:66FILE "23 - Thиme du Dr Gang (Reprise).wav" WAVE INDEX 01 00:00:00 TRACK 24 AUDIO TITLE "Thиme d’Ouverture (Instrumental)" PERFORMER "Shuki Levy & Haim Saban" INDEX 00 02:12:12FILE "24 - Thиme d’Ouverture (Instrumental).wav" WAVE INDEX 01 00:00:00 TRACK 25 AUDIO TITLE "Le Thиme de Sophie (Instrumental)" PERFORMER "Shuki Levy & Haim Saban" INDEX 00 01:15:30FILE "25 - Le Thиme de Sophie (Instrumental).wav" WAVE INDEX 01 00:00:00 TRACK 26 AUDIO TITLE "Inspecteur Gadget (Version TV)" PERFORMER "Jacques Cardona" INDEX 00 02:30:32FILE "26 - Inspecteur Gadget (Version TV).wav" WAVE INDEX 01 00:00:00 TRACK 27 AUDIO TITLE "Inspector Gadget (Opening TV)" PERFORMER "Shuki Levy & Haim Saban" INDEX 00 01:14:21FILE "27 - Inspector Gadget (Opening TV).wav" WAVE INDEX 01 00:00:00 TRACK 28 AUDIO TITLE "Inspector Gadget (Ending TV)" PERFORMER "Shuki Levy & Haim Saban" INDEX 00 01:15:46FILE "28 - Inspector Gadget (Ending TV).wav" WAVE INDEX 01 00:00:00 TRACK 29 AUDIO TITLE "Inspecteur Gadget (Gйnйrique du Film)" PERFORMER "Shuki Levy & Haim Saban" INDEX 00 00:44:10FILE "29 - Inspecteur Gadget (Gйnйrique du Film).wav" WAVE INDEX 01 00:00:00 TRACK 30 AUDIO TITLE "Inspector Gadget Theme" PERFORMER "Shuki Levy & Haim Saban" INDEX 00 02:27:37FILE "30 - Inspector Gadget Theme.wav" WAVE INDEX 01 00:00:00


Трекер:  [ 14-Ноя-2015 04:30 ]

  

Скачать .torrent

Размер .torrent файла 16 KB


Размер: 339 MB
Хэш (hash) релиза: 115e6a95bfadc58892d6e7ceccd99282fd4e599d

Еще никто не оставлял запись к записи скачать торрент Инспектор Гаджет Inspecteur Gadget . Будь первым!

!Обратная связь