Скачать порно через торрент Skippin' School Прогуливая школу UnionPeer.org бесплатно онлайн HD качество

Скачать новое порно 2015, 2014 новинки через торрент UnionPeer.org

Порно торрент бесплатно ЮнионПир.орг

Если у вас наблюдаются проблемы со скриншотами, переходом по ссылками, скачиванием торрентов - проблемы в блокировщике рекламы AdBlock. #хорошегоДня!


Статистика раздачи
Размер:  692 MB   |    Зарегистрирован:  1 год 9 месяцев   |    .torrent скачан:  16 раз   |   
Раздают:  1  
   
Загрузка...
 
Автор Сообщение

Galfimbul

avatar Galfimbul


Skippin'' School / Прогуливая школу

Год производства: 1999 г.
Страна: USA
Жанр: Anal, Blowjob, Group, Cumshots, Masturbate, Twinks, Safe Sex
Продолжительность: 01:08:32

Режиссер: Brad Posey
Студия: Club 1821

В ролях: Derek, Peter, Daniel, Kalani, Mike, Kevin, Sean, Marco, Alex, Trent, Bruce

Описание: Brad Posey now has a little something new for you. The boys are still hung, hard, smooth and hot, but now they''ve got a fuck-buddy or two at their side. School''s out and it''s time to earn extra credit. I guess the more hung the better. Here''s proof that blowjobs do not distract from your grades. (Face it - your parents were wrong about not "jerking off" when it comes to doing your homework!) Yummy tattoos and smooth abs abound here.

Skippin'' School stars one of the prettiest long-haired California boys I''ve witnessed in American porn (Peter Tyler, also of Young, Hard & Solo 9), and bless that chickenhawk Posey for using him twice in this youthful, action-filled video.

Having gone from simple video documenation of photo sessions to hot, full-on solo productions, Posey has finally edged fully into the porno-action arena with this vid. Expect all-vanilla action between clean, groomed boys in well-lit locations and plenty of exposed armpits (Posey''s apparent fetish).

Качество видео: DVDRip
Видео: MPEG1 Video 352x240 (4:3) 29.97fps 1120kbps
Аудио: MPEG Audio 44100Hz stereo 224kbps
Полное имя : Skippin'' School [Club 1821, 1999].mpg
Формат : CDXA/MPEG-PS
Размер файла : 692 Мбайт
Продолжительность : 1 ч. 8 м.
Общий поток : 1412 Кбит/сек

Видео
Идентификатор : 224 (0xE0)
Формат : MPEG Video
Версия формата : Version 1
Параметр BVOP формата : Да
Параметр матрицы формата : По умолчанию
Параметр GOP формата : Variable
Продолжительность : 1 ч. 8 м.
Битрейт : 1160 Кбит/сек
Максимальный битрейт : 1120 Кбит/сек
Ширина : 352 пикселя
Высота : 240 пикселей
Соотношение сторон : 4:3
Частота кадров : 29,970 кадров/сек
Стандарт вещания : NTSC
Цветовое пространство : YUV
Субдискретизация насыщенности : 4:2:0
Битовая глубина : 8 бит
Тип развёртки : Прогрессивная
Метод сжатия : С потерями
Бит/(Пиксели*Кадры) : 0.458
Временной код первого кадра : 00:00:00;00
Оригинал временного кода : Group of pictures header
Размер потока : 568 Мбайт (82%)

Аудио
Идентификатор : 192 (0xC0)
Формат : MPEG Audio
Версия формата : Version 1
Профиль формата : Layer 2
Продолжительность : 1 ч. 8 м.
Вид битрейта : Постоянный
Битрейт : 224 Кбит/сек
Каналы : 2 канала
Частота : 44,1 КГц
Метод сжатия : С потерями
Задержка видео : 334 мс.
Размер потока : 110 Мбайт (16%)


Трекер:  [ 13-Ноя-2015 13:00 ]

  

Скачать .torrent

Размер .torrent файла 14 KB


Размер: 692 MB
Хэш (hash) релиза: ba4c19c05dcd7dfd8f645c34e7e25786db948ffe

Еще никто не оставлял запись к записи скачать торрент Skippin' School Прогуливая школу . Будь первым!

!Обратная связь