Скачать порно через торрент [NextDoorMale.com] Alden Price UnionPeer.org бесплатно онлайн HD качество

Скачать новое порно 2015, 2014 новинки через торрент UnionPeer.org

Порно торрент бесплатно ЮнионПир.орг

Если у вас наблюдаются проблемы со скриншотами, переходом по ссылками, скачиванием торрентов - проблемы в блокировщике рекламы AdBlock. #хорошегоДня!


Статистика раздачи
Размер:  211 MB   |    Зарегистрирован:  1 год 9 месяцев   |    .torrent скачан:  9 раз   |   
Раздают:  1  
   
Загрузка...
 
Автор Сообщение

Galfimbul

avatar Galfimbul


[NextDoorMale.com] Alden Price (Олден Прайс)

Имя актера: Alden Price
Подсайт и сайт: NextDoorMale.com
Номер на сайте: 79668
Год производства: 2015 г.
Жанр: Solo, Uncut, Big Dick, Masturbation, Cumshot
Продолжительность: 00:19:56

Описание: Alden Price makes the most of one last day in the sunshine, as he lounges by the pool before taking a dip to cool off. Born in Bosnia, this newcomer from the midwest is bright eyed and ready to please, as he splashes off in the cool waters, before retreating to the pool deck to lay back and take a load off. Alden strips out of his tiny bikini trunks and spreads his legs, drip drying as he plays with his cock. It grows firm in his hand as he runs his fingers up and down his body, teasing his own asshole before standing up and stroking himself, his spindly legs and thin torso flexing in the light, before launching a monster load all over the lounger below as the sun begins to set on yet another debaucherous summer at Next Door Studios.
Enjoy!

Олден Прайс греет себя на солнце, прежде чем искупаться, чтобы остыть. Родился в Боснии, это пришелец из Среднего Запада яркими глазами и готовый порадовать, так как он плещется в прохладных водах чтобы избавиться от гнетущего. Олден раздвигает ноги и играет с членом, который растет в его руке, он проводит пальцами вверх и вниз поглаживая себя, прежде чем запускать своего монстра. Наслаждайтесь!

Доп. информация: Официальный релиз - 02.11.2015

Тип HD видео: 720p
Формат видео: MP4
Видео: MPEG4 Video (H264) 1280x720 29.97fps 1281kbps Bits/(Pixel*Frame): 0.046
Аудио: AAC 44100Hz stereo 192kbps
Format: MPEG-4
Format profile: Base Media / Version 2
Codec ID: mp42
File size: 211 MiB
Duration: 19mn 56s
Overall bit rate mode: Variable
Overall bit rate: 1 480 Kbps
Writing application: HandBrake 0.10.2 2015061000

Video
Format: AVC
Format/Info: Advanced Video Codec
Format profile: High@L3.1
Format settings, CABAC: Yes
Format settings, ReFrames: 4 frames
Codec ID: avc1
Codec ID/Info: Advanced Video Coding
Duration: 19mn 56s
Bit rate: 1 280 Kbps
Width: 1 280 pixels
Height: 720 pixels
Display aspect ratio: 16:9
Frame rate mode: Variable
Frame rate: 29.970 fps
Minimum frame rate: 12.531 fps
Maximum frame rate: 29.970 fps
Color space: YUV
Chroma subsampling: 4:2:0
Bit depth: 8 bits
Scan type: Progressive
Bits/(Pixel*Frame): 0.046
Stream size: 183 MiB (87%)
Writing library: x264 core 142 r2491 24e4fed
Encoded date: UTC 2015-11-02 13:36:23
Tagged date: UTC 2015-11-02 13:36:23
Color range: Limited
Color primaries: BT.709
Transfer characteristics: BT.709
Matrix coefficients: BT.709

Audio
Format: AAC
Format/Info: Advanced Audio Codec
Format profile: LC
Codec ID: 40
Duration: 19mn 56s
Bit rate mode: Variable
Bit rate: 192 Kbps
Channel(s): 2 channels
Channel positions: Front: L R
Sampling rate: 44.1 KHz
Compression mode: Lossy
Stream size: 27.4 MiB (13%)
Title: Stereo / Stereo
Encoded date: UTC 2015-11-02 13:36:23
Tagged date: UTC 2015-11-02 13:36:23


Трекер:  [ 12-Ноя-2015 02:00 ]

  

Скачать .torrent

Размер .torrent файла 17 KB


Размер: 211 MB
Хэш (hash) релиза: 95953309a110ee5d3741c6f6d648d068bd071e9a

Еще никто не оставлял запись к записи скачать торрент [NextDoorMale.com] Alden Price . Будь первым!

!Обратная связь