Скачать через торрент Последний Серафим: Битва в Нагое Owari no Seraph: Nagoya Kessen Hen бесплатно Аниме Все серии на русском torrent

Если у вас наблюдаются проблемы со скриншотами, переходом по ссылками, скачиванием торрентов - проблемы в блокировщике рекламы AdBlock. #хорошегоДня!


Статистика раздачи
Размер:  1.87 GB   |    Зарегистрирован:  1 год 10 месяцев   |    .torrent скачан:  13 раз   |   
Раздают:  1  
   
Загрузка...
 
Автор Сообщение

Galfimbul

avatar Galfimbul


Последний Серафим: Битва в Нагое / Owari no Seraph: Nagoya Kessen Hen
Страна: Япония
Год выпуска: 2015 г.
Тип: TV
Жанр: Экшен, драма, вампиры, мистика, сёнэн
Продолжительность: 12 эп. по 25 мин
Русские субтитры:
Тайм-код: Holydarkness
Переводчик: Nesitach
Редактор/Тайм-код/Оформление: Stan WarHammer

Режиссер: Токудо Дайсукэ

Студия:

Описание: Юичиро воссоединяется с Микаэлаей после битвы в Синдзюку. Но есть проблема: Микаэла — теперь вампир. Чтобы защитить новую семью и старого друга, Юичиро необходимо обрести достаточно знаний и мощи. Он ищет способы обратить вампира обратно в человека и вместе с этим усердно тренирует контроль над своим демоническим оружием — Ашурамару.
Тем временем Курэто сообщает Глену шокирующую новость: в ближайший месяц главное объединение вампиров планирует атаку на Токио. Чтобы дать достойный отпор вампирам, Курэто приказывает Глену отправиться в Нагою, где их ждет подкрепление. На плечах новообразованного отряда, носящего имя его лидера, Глена Ичиносэ, благородная миссия — истребить род вампиров, и орудия их готовы к бою!

Качество: HDTVRip | Равка: Leopard-Raws Формат: mp4 | Тип Видео: без хардсаба
Видео кодек: AVC
Видео: AVC, 8 bits, 1280x720, 1675 kbps, 23.976 fps, (16:9)
JP - AAC, 192 kbps, 48.0 KHz, 2 ch Язык Японский
01.Human World
02. Complicated Connections
03. Ambition in the Demon Army
04. The Moon Demon`s Orders
05. Livestock Revolt
Общее
Полное имя : D:\[Leopard-Raws]\[Leopard-Raws] Owari no Seraph - Nagoya Kessen Hen\[Leopard-Raws] Owari no Seraph - Nagoya Kessen Hen - 01 RAW (TVA 1280x720 x264 AAC).mp4
Формат : MPEG-4
Профиль формата : Base Media
Идентификатор кодека : isom
Размер файла : 321 Мбайт
Продолжительность : 23 м.
Режим общего битрейта : Переменный
Общий поток : 1869 Кбит/сек
Дата кодирования : UTC 2015-10-10 20:58:30
Дата пометки : UTC 2015-10-10 20:58:30

Видео
Идентификатор : 1
Формат : AVC
Формат/Информация : Advanced Video Codec
Профиль формата : High@L4.1
Параметр CABAC формата : Да
Параметр ReFrames формата : 4 кадра
Идентификатор кодека : avc1
Идентификатор кодека/Информация : Advanced Video Coding
Продолжительность : 23 м.
Битрейт : 1675 Кбит/сек
Максимальный битрейт : 15,2 Мбит/сек
Ширина : 1280 пикселей
Высота : 720 пикселей
Соотношение сторон : 16:9
Режим частоты кадров : Постоянный
Частота кадров : 23,976 кадра/сек
Цветовое пространство : YUV
Субдискретизация насыщенности : 4:2:0
Битовая глубина : 8 бит
Тип развёртки : Прогрессивная
Бит/(Пиксели*Кадры) : 0.076
Размер потока : 287 Мбайт (90%)
Заголовок : 264:fps=23.976@GPAC0.5.1-DEV-rev4929
Библиотека кодирования : x264 core 129 r2245+729M 1a52e03
Настройки программы : cabac=1 / ref=4 / deblock=1:1:-1 / analyse=0x3:0x113 / me=umh / subme=9 / psy=1 / fade_compensate=0.00 / psy_rd=1.00:0.00 / mixed_ref=1 / me_range=24 / chroma_me=1 / trellis=2 / 8x8dct=1 / cqm=0 / deadzone=21,11 / fast_pskip=1 / chroma_qp_offset=-2 / threads=8 / lookahead_threads=1 / sliced_threads=0 / nr=0 / decimate=1 / interlaced=0 / bluray_compat=0 / constrained_intra=0 / fgo=0 / bframes=9 / b_pyramid=2 / b_adapt=2 / b_bias=0 / direct=1 / weightb=1 / open_gop=0 / weightp=2 / keyint=240 / keyint_min=24 / scenecut=40 / intra_refresh=0 / rc=crf / mbtree=0 / crf=18.5 / qcomp=0.72 / qpmin=0 / qpmax=69 / qpstep=4 / ip_ratio=1.40 / pb_ratio=1.30 / aq=1:0.85
Дата кодирования : UTC 2015-10-10 20:58:30
Дата пометки : UTC 2015-10-10 20:58:33
Основные цвета : BT.709
Характеристики трансфера : BT.709
Коэффициенты матрицы : BT.709

Аудио
Идентификатор : 2
Формат : AAC
Формат/Информация : Advanced Audio Codec
Профиль формата : LC
Идентификатор кодека : 40
Продолжительность : 23 м.
Вид битрейта : Переменный
Битрейт : 192 Кбит/сек
Максимальный битрейт : 228 Кбит/сек
Каналы : 2 канала
Расположение каналов : Front: L R
Частота : 48,0 КГц
Метод сжатия : С потерями
Размер потока : 32,8 Мбайт (10%)
Язык : Japanese
Дата кодирования : UTC 2015-10-10 17:33:47
Дата пометки : UTC 2015-10-10 20:58:33


Обновите торент файл, добавлена 5я серия

Трекер:  [ 08-Ноя-2015 21:00 ]

  

Скачать .torrent

Размер .torrent файла 20 KB


Размер: 1.87 GB
Хэш (hash) релиза: 860a586530bee863a956019ac4ab8ce587fa299b
Подписка на обновления:

Торренты, похожие на Последний Серафим: Битва в Нагое Owari no Seraph: Nagoya Kessen Hen скачать торрент

Форум Название Автор Размер S L Добавлен
Аниме | HD Rips ·· Последний Серафим (ТВ-2): Битва в Нагое / Owari no Seraph: Nagoya Kessen Hen (Токудо Дайсукэ) [TV] [12 из 12] [без хардсаба] [RUS(ext), JAP+SUB] [2015 г., мистика, BDRip] [720p] Galfimbul 88946499138.28 GB 0 0 1475281556

03:25

1-Окт-16

Аниме | Rips ·· Последний Серафим: Битва в Нагое [ТВ-2] / Owari no Seraph: Nagoya Kessen Hen / Seraph of the End [TV] [01-12 из 12] [Без хардсаба] [RUS(int), JAP+SUB] [2015 г., приключения, вампиры, HDTVRip] [720p] Galfimbul 52487849504.89 GB 0 0 1468162583

17:56

10-Июл-16

Аниме | Rips ·· Последний Серафим: Битва в Нагое (ТВ-2) / Owari no Seraph: Nagoya Kessen Hen / Seraph of the End [TV] [01-07 из 12] [Без хардсаба] [RUS(int), JAP] [2015 г., приключения, HDTVRip] [720p] Galfimbul 30641923482.85 GB 0 0 1462660667

01:37

8-Май-16

Аниме | Rips ·· Последний Серафим: Битва в Нагое [ТВ-2] / Owari no Seraph: Nagoya Kessen Hen / Seraph of the End [TV] [01-12 из 12] [Без хардсаба] [RUS(int), JAP+SUB] [2015 г., приключения, вампиры, HDTVRip] [720p] Galfimbul 52336357184.87 GB 0 0 1453991466

17:31

28-Янв-16

Аниме | Rips ·· Последний Серафим: Битва в Нагое (ТВ-2) / Owari no Seraph: Nagoya Kessen Hen / Seraph of the End [TV] [01 из 12] [Без хардсаба] [RUS(int), JAP] [2015 г., приключения, HDTVRip] [720p] Galfimbul 370868384354 MB 0 0 1444945059

00:37

16-Окт-15

Аниме | HD Rips ·· Последний Серафим: Битва в Нагое (ТВ-2) / Owari no Seraph: Nagoya Kessen Hen [TV] [01 из 12] [Без хардсаба] [RUS(int), JAP, SUB] [2015 г., Экшен, Драма, Вампиры, Мистика, Сёнэн, HDTVRip] [720p] Galfimbul 370790380354 MB 0 0 1444859088

00:44

15-Окт-15

Еще никто не оставлял запись к записи скачать торрент Последний Серафим: Битва в Нагое Owari no Seraph: Nagoya Kessen Hen . Будь первым!

!Обратная связь