Скачать через торрент музыку Шерлок Холмс Sherlock Holmes бесплатно без регистрации torrent

Если у вас наблюдаются проблемы со скриншотами, переходом по ссылками, скачиванием торрентов - проблемы в блокировщике рекламы AdBlock. #хорошегоДня!


Статистика раздачи
Размер:  242 MB   |    Зарегистрирован:  1 год 10 месяцев   |    .torrent скачан:  8 раз   |   
Раздают:  1  
   
Загрузка...
 
Автор Сообщение

Galfimbul

avatar Galfimbul


Шерлок Холмс / Sherlock Holmes

Жанр: Score
Композитор: Patrick Gowers
Год выпуска диска: 2000
Год выпуска фильма: 1987
Страна-производитель диска: Великобритания
Издатель (лейбл): Jay Productions Ltd
Номер по каталогу: CDJAY-1334
Аудиокодек: WavPack (*.wv)
Тип рипа: image+.cue
Битрейт аудио: lossless
Продолжительность: 56:03
Источник: ослосеть
Наличие сканов в содержимом раздачи: да

Треклист:
01. 221B Baker Street (00:47)
02. Elsie Cubitt (03:56)
03. Libera Me (04:13)
04. North By Ten And By Ten (02:44)
05. Old Sherman's Dog Toby (01:24)
06. Sutton's Nightmare (03:34)
07. River Chase (05:54)
08. The Death Of Sherlock Holmes (05:25)
09. Irene Adler (04:46)
10. Holmes In Europe (01:25)
11. John Hector McFarlane And His Mother (02:01)
12. Setting Out (02:08)
13. Lucretia Venucci And Her Family (03:44)
14. Mr Henry Baker's Christmas (02:10)
15. The Illustrious Lord Bellinger (02:13)
16. On The Trail (01:19)
17. Neville St. Clair's Nostalgia (02:14)
18. The Bar Of Gold, Upper Swandam Lane (04:07)
19. Baker Street Reunion (01:48)
Exact Audio Copy V0.99 prebeta 4 from 23. January 2008

EAC extraction logfile from 3. July 2009, 15:07

Patrick Gowers / Sherlock Holmes

Used drive : TSSTcorpCDDVDW SH-S203D Adapter: 2 ID: 0

Read mode : SecureUtilize accurate stream : YesDefeat audio cache : YesMake use of C2 pointers : No

Read offset correction : 6Overread into Lead-In and Lead-Out : NoFill up missing offset samples with silence : YesDelete leading and trailing silent blocks : NoNull samples used in CRC calculations : YesUsed interface : Native Win32 interface for Win NT & 2000

Used output format : Internal WAV RoutinesSample format : 44.100 Hz; 16 Bit; Stereo

TOC of the extracted CD

Track | Start | Length | Start sector | End sector --------------------------------------------------------- 1 | 0:00.00 | 0:47.55 | 0 | 3579 2 | 0:47.55 | 3:56.27 | 3580 | 21306 3 | 4:44.07 | 4:13.35 | 21307 | 40316 4 | 8:57.42 | 2:44.45 | 40317 | 52661 5 | 11:42.12 | 1:24.73 | 52662 | 59034 6 | 13:07.10 | 3:35.52 | 59035 | 75211 7 | 16:42.62 | 5:54.30 | 75212 | 101791 8 | 22:37.17 | 5:25.03 | 101792 | 126169 9 | 28:02.20 | 4:46.47 | 126170 | 147666 10 | 32:48.67 | 1:25.55 | 147667 | 154096 11 | 34:14.47 | 2:01.08 | 154097 | 163179 12 | 36:15.55 | 2:08.40 | 163180 | 172819 13 | 38:24.20 | 3:44.50 | 172820 | 189669 14 | 42:08.70 | 2:10.40 | 189670 | 199459 15 | 44:19.35 | 2:13.45 | 199460 | 209479 16 | 46:33.05 | 1:19.50 | 209480 | 215454 17 | 47:52.55 | 2:14.62 | 215455 | 225566 18 | 50:07.42 | 4:07.23 | 225567 | 244114 19 | 54:14.65 | 1:48.45 | 244115 | 252259

Range status and errors

Selected range

Filename C:\DAE\Patrick Gowers -1987- Sherlock Holmes (2000) {CDJAY 1334}\Patrick Gowers - Sherlock Holmes.wav

Peak level 100.0 % Range quality 99.9 % Test CRC BCE58060 Copy CRC BCE58060 Copy OK

No errors occurred

AccurateRip summary

Track 1 cannot be verified as accurate (confidence 1) [B6BD8385], AccurateRip returned [BC30660D]Track 2 cannot be verified as accurate (confidence 1) [99CA850A], AccurateRip returned [D6739CFA]Track 3 cannot be verified as accurate (confidence 1) [BFBD6863], AccurateRip returned [5D9081EB]Track 4 cannot be verified as accurate (confidence 1) [E8E7FC09], AccurateRip returned [EDE72339]Track 5 cannot be verified as accurate (confidence 1) [B719FC9E], AccurateRip returned [C3909B76]Track 6 cannot be verified as accurate (confidence 1) [7B9973D2], AccurateRip returned [0ED05012]Track 7 cannot be verified as accurate (confidence 1) [F47CAF8C], AccurateRip returned [5DFFC874]Track 8 cannot be verified as accurate (confidence 1) [FC07CB70], AccurateRip returned [7E974F40]Track 9 cannot be verified as accurate (confidence 1) [0D96690F], AccurateRip returned [C668D817]Track 10 cannot be verified as accurate (confidence 1) [767BE650], AccurateRip returned [4287D000]Track 11 cannot be verified as accurate (confidence 1) [9187121F], AccurateRip returned [BA4C6227]Track 12 cannot be verified as accurate (confidence 1) [5ED9B2D2], AccurateRip returned [8BF9E1BA]Track 13 cannot be verified as accurate (confidence 1) [97604FF1], AccurateRip returned [8EEDF0C1]Track 14 cannot be verified as accurate (confidence 1) [EF48EFE0], AccurateRip returned [B4EF0ED0]Track 15 cannot be verified as accurate (confidence 1) [FD929AB6], AccurateRip returned [F9CA20DE]Track 16 cannot be verified as accurate (confidence 1) [D4D59E65], AccurateRip returned [ECB35325]Track 17 cannot be verified as accurate (confidence 1) [443195C3], AccurateRip returned [878ECDFB]Track 18 cannot be verified as accurate (confidence 1) [17628EA6], AccurateRip returned [62BEBD16]Track 19 cannot be verified as accurate (confidence 1) [29C6245E], AccurateRip returned [EDB00E56]

No tracks could be verified as accurateYou may have a different pressing from the one(s) in the database

End of status report
REM GENRE SoundtrackREM DATE "1987 (2000)"REM DISCID 190D2313REM COMMENT "ExactAudioCopy v0.99pb4"PERFORMER "Patrick Gowers"TITLE "Sherlock Holmes"FILE "Patrick Gowers - Sherlock Holmes.wv" WAVE TRACK 01 AUDIO TITLE "221B Baker Street" PERFORMER "Patrick Gowers" ISRC GBDGA0000121 INDEX 01 00:00:00 TRACK 02 AUDIO TITLE "Elsie Cubitt" PERFORMER "Patrick Gowers" ISRC GBDGA0000122 INDEX 01 00:47:55 TRACK 03 AUDIO TITLE "Libera Me" PERFORMER "Patrick Gowers" ISRC GBDGA0000123 INDEX 00 04:41:65 INDEX 01 04:44:07 TRACK 04 AUDIO TITLE "North by Ten and by Ten" PERFORMER "Patrick Gowers" ISRC GBDGA0000124 INDEX 01 08:57:42 TRACK 05 AUDIO TITLE "Old Sherman's Dog Toby" PERFORMER "Patrick Gowers" ISRC GBDGA0000125 INDEX 01 11:42:12 TRACK 06 AUDIO TITLE "Sutton's Nightmare" PERFORMER "Patrick Gowers" ISRC GBDGA0000126 INDEX 00 13:05:45 INDEX 01 13:07:10 TRACK 07 AUDIO TITLE "River Chase" PERFORMER "Patrick Gowers" ISRC GBDGA0000127 INDEX 00 16:41:47 INDEX 01 16:42:62 TRACK 08 AUDIO TITLE "The Death of Sherlock Holmes" PERFORMER "Patrick Gowers" ISRC GBDGA0000128 INDEX 00 22:34:27 INDEX 01 22:37:17 TRACK 09 AUDIO TITLE "Irene Adler" PERFORMER "Patrick Gowers" ISRC GBDGA0000129 INDEX 00 28:01:07 INDEX 01 28:02:20 TRACK 10 AUDIO TITLE "Holmes in Europe" PERFORMER "Patrick Gowers" ISRC GBDGA0000130 INDEX 01 32:48:67 TRACK 11 AUDIO TITLE "John Hector McFarlane and His Mother" PERFORMER "Patrick Gowers" ISRC GBDGA0000131 INDEX 00 34:13:05 INDEX 01 34:14:47 TRACK 12 AUDIO TITLE "Setting Out" PERFORMER "Patrick Gowers" ISRC GBDGA0000132 INDEX 00 36:14:15 INDEX 01 36:15:55 TRACK 13 AUDIO TITLE "Lucretia Venucci and Her Family" PERFORMER "Patrick Gowers" ISRC GBDGA0000133 INDEX 00 38:23:10 INDEX 01 38:24:20 TRACK 14 AUDIO TITLE "Mr Henry Baker's Christmas" PERFORMER "Patrick Gowers" ISRC GBDGA0000134 INDEX 00 42:07:42 INDEX 01 42:08:70 TRACK 15 AUDIO TITLE "The Illustrious Lord Bellinger" PERFORMER "Patrick Gowers" ISRC GBDGA0000135 INDEX 01 44:19:35 TRACK 16 AUDIO TITLE "On the Trail" PERFORMER "Patrick Gowers" ISRC GBDGA0000136 INDEX 00 46:32:00 INDEX 01 46:33:05 TRACK 17 AUDIO TITLE "Neville St. Clair's Nostalgia" PERFORMER "Patrick Gowers" ISRC GBDGA0000137 INDEX 01 47:52:55 TRACK 18 AUDIO TITLE "The Bar of Gold, Upper Swandam Lane" PERFORMER "Patrick Gowers" ISRC GBDGA0000138 INDEX 00 50:06:40 INDEX 01 50:07:42 TRACK 19 AUDIO TITLE "Baker Street Reunion" PERFORMER "Patrick Gowers" ISRC GBDGA0000139 INDEX 00 54:13:45 INDEX 01 54:14:65


Трекер:  [ 08-Ноя-2015 13:30 ]

  

Скачать .torrent

Размер .torrent файла 20 KB


Размер: 242 MB
Хэш (hash) релиза: 5489bdbf33217d47d3caf7aac0213c3914bd1181

Еще никто не оставлял запись к записи скачать торрент Шерлок Холмс Sherlock Holmes . Будь первым!

!Обратная связь