Скачать через торрент музыку Где-то во времени Somewhere in Time бесплатно без регистрации torrent

Если у вас наблюдаются проблемы со скриншотами, переходом по ссылками, скачиванием торрентов - проблемы в блокировщике рекламы AdBlock. #хорошегоДня!


Статистика раздачи
Размер:  173 MB   |    Зарегистрирован:  2 года 1 месяц   |    .torrent скачан:  17 раз   |   
Раздают:  1  
   
Загрузка...
 
Автор Сообщение

Galfimbul

avatar Galfimbul


John Barry - Somewhere in Time (Где-то во времени)
(Перезаписанное издание)
Жанр: Score
Композитор: John Barry
Год выпуска диска: 1998
Год выпуска фильма: 1980
Страна-производитель диска: U.K.
Издатель (лейбл): Varese Sarabande Records
Аудиокодек: APE (*.ape) Тип рипа: image+.cue
Битрейт аудио: lossless
Продолжительность: 0:42:26
Источник: скачано с сайта torrents.ru 11.09.2008

Треклист:
01. Somewhere In Time
02. Old Woman
03. Grand Hotel
04. Ninteen Twelve
05. Thanks
06. June 27th
07. Room 417
08. The Attic
09. Near The Lake
10. Rachmaninoff: Rhapsody On Theme Of Paganini
11. Is He The One?
12. A Day Together
13. Rowing
14. The Man Of My Dreams
15. Razor
16. Total Dismay
17. Coin
18. Whimper
19. Somwhere In Time (End Credits)

Royal Scottish National Orchestra, conductor - John Debney
Lynda Cochrane, Edwin Paling
Exact Audio Copy V0.99 prebeta 4 from 23. January 2008

Отчёт EAC об извлечении, выполненном 11. сентября 2008, 18:15

John Barry (composer);John Debney (conductor);Royal Scottish National Orchestra / Somewhere in Time

Дисковод: ASUS DRW-2014L1T Adapter: 3 ID: 0

Режим чтения : ДостоверностьИспользование точного потока : ДаОтключение кэша аудио : ДаИспользование указателей C2 : Нет

Коррекция смещения при чтении : 6Способность читать области Lead-in и Lead-out : НетЗаполнение пропущенных сэмплов тишиной : ДаУдаление блоков с тишиной в начале и конце : НетПри вычислениях CRC использовались нулевые сэмплы : НетИнтерфейс : Установленный внешний ASPI-интерфейс

Выходной формат : Внутренние WAV-операцииФормат сэмплов : 44.100 Гц; 16 бит; стерео

TOC извлечённого CD

Трек | Старт | Длительность | Начальный сектор | Конечный сектор --------------------------------------------------------------------- 1 | 0:00.00 | 3:40.67 | 0 | 16566 2 | 3:40.67 | 1:04.30 | 16567 | 21396 3 | 4:45.22 | 1:25.63 | 21397 | 27834 4 | 6:11.10 | 1:45.42 | 27835 | 35751 5 | 7:56.52 | 1:23.70 | 35752 | 42046 6 | 9:20.47 | 1:30.30 | 42047 | 48826 7 | 10:51.02 | 1:07.53 | 48827 | 53904 8 | 11:58.55 | 4:11.17 | 53905 | 72746 9 | 16:09.72 | 2:17.53 | 72747 | 83074 10 | 18:27.50 | 3:09.70 | 83075 | 97319 11 | 21:37.45 | 0:59.65 | 97320 | 101809 12 | 22:37.35 | 2:35.07 | 101810 | 113441 13 | 25:12.42 | 1:33.15 | 113442 | 120431 14 | 26:45.57 | 1:30.20 | 120432 | 127201 15 | 28:16.02 | 1:15.60 | 127202 | 132886 16 | 29:31.62 | 4:10.20 | 132887 | 151656 17 | 33:42.07 | 0:25.20 | 151657 | 153551 18 | 34:07.27 | 3:23.63 | 153552 | 168839 19 | 37:31.15 | 4:54.52 | 168840 | 190941

Характеристики диапазона извлечения и сообщения об ошибках

Выбранный диапазон

Имя файла D:\UP\John Barry (composer);John Debney (conductor);Royal Scottish National Orchestra - Somewhere in Time.wav

Пиковый уровень 100.0 % Качество диапазона 100.0 % CRC копии 99B223E5 Копирование... OK

Ошибок не произошло

Конец отчёта


Трекер:  [ 05-Ноя-2015 21:00 ]

  

Скачать .torrent

Размер .torrent файла 14 KB


Размер: 173 MB
Хэш (hash) релиза: 64816d2ab78ce0ae779134507606ca808bdf2acc

Еще никто не оставлял запись к записи скачать торрент Где-то во времени Somewhere in Time . Будь первым!

!Обратная связь