Скачать через торрент Ария по прозвищу Алая Пуля Hidan no Aria AA бесплатно Аниме Все серии на русском torrent

Если у вас наблюдаются проблемы со скриншотами, переходом по ссылками, скачиванием торрентов - проблемы в блокировщике рекламы AdBlock. #хорошегоДня!


Статистика раздачи
Размер:  1.03 GB   |    Зарегистрирован:  1 год 10 месяцев   |    .torrent скачан:  21 раз   |   
Раздают:  1  
   
Загрузка...
 
Автор Сообщение

Galfimbul

avatar Galfimbul


Ария по прозвищу Алая Пуля / Hidan no Aria AA
Страна: Япония
Год выпуска: 2015 г.
Тип: TV
Жанр: Экшн, приключения
Продолжительность: 12 эп. по 25 мин
Русские субтитры: YukioSub Project & ANderground team
Переводчик: Asada Shire YukioSub Project
Редактор: Esito ANderground team
Перевод песен: Rinon Ninqueon
Переводчик: Yukio_Sempai YukioSub Project

Режиссер: Кавабата Такаси

Студия:

Описание: Сюжет этой истории сосредотачивается вокруг Акари Мамии, ученицы-первогодки старшей школы Бутэй, стремящейся следовать по стопам своего идеала, всемирно известного бутэя S-ранга, Арии Холмс Кандзаки. Однако способности Акари потянули только на E-ранг, поэтому Ария соглашается помочь ей советом и делом, тем самым дав шанс новичку стать первоклассным бутеэм.

Качество: HDTVRip | Равка: Leopard-Raws Формат: mp4 | Тип Видео: без хардсаба
Видео кодек: AVC
Видео: AVC, 8 bits, 1280x720, 2010 kbps, 23.976 fps, (16:9)
JP - AAC, 192 kbps, 48.0 KHz, 2 ch Язык Японский
01. Another A
02. Dangerous Relationship
03. Applying to Be an Amica
Общее
Полное имя : D:\[Leopard-Raws]\[Leopard-Raws] Hidan no Aria AA\[Leopard-Raws] Hidan no Aria AA - 01 RAW (TVA 1280x720 x264 AAC).mp4
Формат : MPEG-4
Профиль формата : Base Media
Идентификатор кодека : isom
Размер файла : 379 Мбайт
Продолжительность : 23 м.
Режим общего битрейта : Переменный
Общий поток : 2206 Кбит/сек
Дата кодирования : UTC 2015-10-06 18:34:12
Дата пометки : UTC 2015-10-06 18:34:12

Видео
Идентификатор : 1
Формат : AVC
Формат/Информация : Advanced Video Codec
Профиль формата : High@L4.1
Параметр CABAC формата : Да
Параметр ReFrames формата : 4 кадра
Идентификатор кодека : avc1
Идентификатор кодека/Информация : Advanced Video Coding
Продолжительность : 23 м.
Битрейт : 2010 Кбит/сек
Максимальный битрейт : 14,3 Мбит/сек
Ширина : 1280 пикселей
Высота : 720 пикселей
Соотношение сторон : 16:9
Режим частоты кадров : Постоянный
Частота кадров : 23,976 кадра/сек
Цветовое пространство : YUV
Субдискретизация насыщенности : 4:2:0
Битовая глубина : 8 бит
Тип развёртки : Прогрессивная
Бит/(Пиксели*Кадры) : 0.091
Размер потока : 345 Мбайт (91%)
Заголовок : 264:fps=23.976@GPAC0.5.1-DEV-rev4929
Библиотека кодирования : x264 core 129 r2245+729M 1a52e03
Настройки программы : cabac=1 / ref=4 / deblock=1:1:-1 / analyse=0x3:0x113 / me=umh / subme=9 / psy=1 / fade_compensate=0.00 / psy_rd=1.00:0.00 / mixed_ref=1 / me_range=24 / chroma_me=1 / trellis=2 / 8x8dct=1 / cqm=0 / deadzone=21,11 / fast_pskip=1 / chroma_qp_offset=-2 / threads=8 / lookahead_threads=1 / sliced_threads=0 / nr=0 / decimate=1 / interlaced=0 / bluray_compat=0 / constrained_intra=0 / fgo=0 / bframes=9 / b_pyramid=2 / b_adapt=2 / b_bias=0 / direct=1 / weightb=1 / open_gop=0 / weightp=2 / keyint=240 / keyint_min=24 / scenecut=40 / intra_refresh=0 / rc=crf / mbtree=0 / crf=18.5 / qcomp=0.72 / qpmin=0 / qpmax=69 / qpstep=4 / ip_ratio=1.40 / pb_ratio=1.30 / aq=1:0.85
Дата кодирования : UTC 2015-10-06 18:34:12
Дата пометки : UTC 2015-10-06 18:34:14
Основные цвета : BT.709
Характеристики трансфера : BT.709
Коэффициенты матрицы : BT.709

Аудио
Идентификатор : 2
Формат : AAC
Формат/Информация : Advanced Audio Codec
Профиль формата : LC
Идентификатор кодека : 40
Продолжительность : 23 м.
Вид битрейта : Переменный
Битрейт : 192 Кбит/сек
Максимальный битрейт : 235 Кбит/сек
Каналы : 2 канала
Расположение каналов : Front: L R
Частота : 48,0 КГц
Метод сжатия : С потерями
Размер потока : 32,9 Мбайт (9%)
Язык : Japanese
Дата кодирования : UTC 2015-10-06 17:25:50
Дата пометки : UTC 2015-10-06 18:34:14


Обновите торент файл, добавлена 3я серия

Трекер:  [ 05-Ноя-2015 00:00 ]

  

Скачать .torrent

Размер .torrent файла 11 KB


Размер: 1.03 GB
Хэш (hash) релиза: dce499c54977ad9aedde5303e69b02dbe838a216
Подписка на обновления:

Торренты, похожие на Ария по прозвищу Алая Пуля Hidan no Aria AA скачать торрент

Форум Название Автор Размер S L Добавлен
Аниме | HD Rips ·· Ария по прозвищу Алая Пуля: Дважды «А» / Hidan no Aria AA / Aria the Scarlet Ammo AA [TV] [1-12 из 12] [Без хардсаба] [JAP, SUB] [2015 г., Экшен, Школа, приключения, HDTVRip] [720p] Galfimbul 43504687074.05 GB 0 0 1459527110

19:11

1-Апр-16

Аниме | Rips ·· Ария по прозвищу Алая Пуля (ТВ-2) / Hidan no Aria AA / Aria the Scarlet Ammo Doube A [TV] [01-06 из 12] [Без хардсаба] [RUS(ext), JAP, SUB] [2015 г., Экшен, Приключения, BDRip] [720p] Galfimbul 51491734494.8 GB 0 0 1468241731

15:55

11-Июл-16

Аниме | Rips ·· Ария по прозвищу Алая Пуля (ТВ-2) / Hidan no Aria AA / Aria the Scarlet Ammo Doube A [TV] [01-04 из 12] [Без хардсаба] [RUS(ext), JAP, SUB] [2015 г., Экшн, Приключения, BDRip] [720p] Galfimbul 17608090241.64 GB 0 0 1455289408

18:03

12-Фев-16

Аниме | HD Rips ·· Ария по прозвищу Алая Пуля: Дважды «А» / Hidan no Aria AA [TV] [12 из 12] [без хардсаба] [JAP+SUB] [2015 г., приключения, BDRemux] [1080p] Galfimbul 8835401968882.29 GB 0 0 1469387434

22:10

24-Июл-16

Аниме | Rips ·· Ария по прозвищу Алая Пуля (ТВ-2) / Hidan no Aria AA [TV] [01-07 из 12] [Без хардсаба] [RUS(ext), JAP] & [01-03 из 12] [SUB] [2015 г., Экшн, Приключения, HDTVRip] [720p] Galfimbul 27268002512.54 GB 0 0 1448558965

20:29

26-Ноя-15

Еще никто не оставлял запись к записи скачать торрент Ария по прозвищу Алая Пуля Hidan no Aria AA . Будь первым!

!Обратная связь