Скачать через торрент Антимагическая академия: 35-е экспериментальное подразделение Taimadou Gakuen 35 Shiken Shoutai бесплатно Аниме Все серии на русском torrent

Если у вас наблюдаются проблемы со скриншотами, переходом по ссылками, скачиванием торрентов - проблемы в блокировщике рекламы AdBlock. #хорошегоДня!


Статистика раздачи
Размер:  608 MB   |    Зарегистрирован:  2 года 1 месяц   |    .torrent скачан:  80 раз   |   
Раздают:  1  
   
Загрузка...
 
Автор Сообщение

Galfimbul

avatar Galfimbul


Антимагическая академия: 35-е экспериментальное подразделение / Taimadou Gakuen 35 Shiken Shoutai
Страна: Япония
Год выпуска: 2015 г.
Тип: TV
Жанр: Приключени, фэнтези, комедия, сёнэн, этти, боевик
Продолжительность: 12 эп. по 25 мин
Русские субтитры: nnm-club^anime
Редактор/Тайм-код: ElSwanko
Переводчик/Оформление: kvaking

Режиссер: Кавамура Томоюки

Студия:

Описание: 35-е экспериментальное подразделение — одно из военизированных подразделений, обосновавшихся под крылом так называемой «Антимагической академии». Непосредственной задачей этой академии является взращивание бойцов — инквизиторов — способных предотвратить любую магическую угрозу. Однако такое название, как «35-е экспериментальное подразделение», лишь на словах кажется чем-то внушительным. На деле — это сборище эгоцентричных людей с личностными проблемами, людей, не способных к взаимовыгодному сотрудничеству.

Качество: HDTVRip | Равка: Leopard-Raws Формат: mp4 | Тип Видео: без хардсаба
Видео кодек: AVC
Видео: AVC, 8 bits, 1280x720, 1241 kbps, 23.976 fps, (16:9)
JP - AAC, 192 kbps, 48.0 KHz, 2 ch Язык Японский
01.Взвод "Мальков"! На выход!
02. Призыв героя
Общее
Полное имя : D:\[Leopard-Raws]\[Leopard-Raws] Taimadou Gakuen 35 Shiken Shoutai\[Leopard-Raws] Taimadou Gakuen 35 Shiken Shoutai - 01 RAW (SUN 1280x720 x264 AAC).mp4
Формат : MPEG-4
Профиль формата : Base Media
Идентификатор кодека : isom
Размер файла : 247 Мбайт
Продолжительность : 23 м.
Режим общего битрейта : Переменный
Общий поток : 1436 Кбит/сек
Дата кодирования : UTC 2015-10-07 20:48:09
Дата пометки : UTC 2015-10-07 20:48:09

Видео
Идентификатор : 1
Формат : AVC
Формат/Информация : Advanced Video Codec
Профиль формата : High@L4.1
Параметр CABAC формата : Да
Параметр ReFrames формата : 4 кадра
Идентификатор кодека : avc1
Идентификатор кодека/Информация : Advanced Video Coding
Продолжительность : 23 м.
Битрейт : 1241 Кбит/сек
Максимальный битрейт : 8530 Кбит/сек
Ширина : 1280 пикселей
Высота : 720 пикселей
Соотношение сторон : 16:9
Режим частоты кадров : Постоянный
Частота кадров : 23,976 кадра/сек
Цветовое пространство : YUV
Субдискретизация насыщенности : 4:2:0
Битовая глубина : 8 бит
Тип развёртки : Прогрессивная
Бит/(Пиксели*Кадры) : 0.056
Размер потока : 213 Мбайт (86%)
Заголовок : 264:fps=23.976@GPAC0.5.1-DEV-rev4929
Библиотека кодирования : x264 core 129 r2245+729M 1a52e03
Настройки программы : cabac=1 / ref=4 / deblock=1:1:-1 / analyse=0x3:0x113 / me=umh / subme=9 / psy=1 / fade_compensate=0.00 / psy_rd=1.00:0.00 / mixed_ref=1 / me_range=24 / chroma_me=1 / trellis=2 / 8x8dct=1 / cqm=0 / deadzone=21,11 / fast_pskip=1 / chroma_qp_offset=-2 / threads=8 / lookahead_threads=1 / sliced_threads=0 / nr=0 / decimate=1 / interlaced=0 / bluray_compat=0 / constrained_intra=0 / fgo=0 / bframes=9 / b_pyramid=2 / b_adapt=2 / b_bias=0 / direct=1 / weightb=1 / open_gop=0 / weightp=2 / keyint=240 / keyint_min=24 / scenecut=40 / intra_refresh=0 / rc=crf / mbtree=0 / crf=18.5 / qcomp=0.72 / qpmin=0 / qpmax=69 / qpstep=4 / ip_ratio=1.40 / pb_ratio=1.30 / aq=1:0.85
Дата кодирования : UTC 2015-10-07 20:48:09
Дата пометки : UTC 2015-10-07 20:48:11
Основные цвета : BT.709
Характеристики трансфера : BT.709
Коэффициенты матрицы : BT.709

Аудио
Идентификатор : 2
Формат : AAC
Формат/Информация : Advanced Audio Codec
Профиль формата : LC
Идентификатор кодека : 40
Продолжительность : 23 м.
Вид битрейта : Переменный
Битрейт : 192 Кбит/сек
Максимальный битрейт : 227 Кбит/сек
Каналы : 2 канала
Расположение каналов : Front: L R
Частота : 48,0 КГц
Метод сжатия : С потерями
Размер потока : 32,9 Мбайт (13%)
Язык : Japanese
Дата кодирования : UTC 2015-10-07 17:51:17
Дата пометки : UTC 2015-10-07 20:48:11


Обновите торент файл, добавлена 2я серия

Трекер:  [ 19-Окт-2015 00:00 ]

  

Скачать .torrent

Размер .torrent файла 13 KB


Размер: 608 MB
Хэш (hash) релиза: 973ce3a64a2ee47c09201940631302051ebd30dd
Подписка на обновления:

Торренты, похожие на Антимагическая академия: 35-е экспериментальное подразделение Taimadou Gakuen 35 Shiken Shoutai скачать торрент

Форум Название Автор Размер S L Добавлен
Аниме | HD Rips ·· Антимагическая академия: 35-е экспериментальное подразделение / Taimadou Gakuen 35 Shiken Shoutai (Кавамура Томоюки) [TV] [12 из 12] [Без хардсаба] [JAP+SUB] [2015, приключения, фэнтези, BDRip] [1080p] Galfimbul 1348946537112.56 GB 2 0 1478360190

18:36

5-Ноя-16

Аниме | HD Rips ·· Антимагическая академия: 35-е экспериментальное подразделение / Taimadou Gakuen 35 Shiken Shoutai (Кавамура Томоюки) [TV] [6 из 12] [Без хардсаба] [JAP+SUB] [2015, приключения, фэнтези, BDRip] [1080p] Galfimbul 61983418905.77 GB 0 0 1477747445

16:24

29-Окт-16

Аниме | HD Rips ·· Антимагическая академия: 35-е экспериментальное подразделение / Taimadou Gakuen 35 Shiken Shoutai (Кавамура Томоюки) [TV] [4 из 12] [Без хардсаба] [JAP+SUB] [2015 г., приключения, фэнтези, BDRip] [1080p] Galfimbul 42043584703.92 GB 0 0 1473368056

23:54

8-Сен-16

Аниме | Rips ·· Антимагическая академия: 35-е экспериментальное подразделение / Taimadou Gakuen 35 Shiken Shoutai [TV] [12 из 12] [Без хардсаба] [RUS(ext), JAP, SUB] [2015 г., Экшен, Сверхъестественное, Военное, Этти, Фэнтези, Романтика, Гарем, BDRip] [720p] Galfimbul 51939938294.84 GB 0 0 1465036432

13:33

4-Июн-16

Аниме | Rips ·· Антимагическая академия: 35-е экспериментальное подразделение / Taimadou Gakuen 35 Shiken Shoutai (Кавамура Томоюки) [TV] [Без хардсаба] [4 из 12] [JAP+SUB] [2015 г., приключения, фэнтези, комедия, сёнэн WEBRip] Galfimbul 614969293586 MB 0 0 1446624335

11:05

4-Ноя-15

Аниме | Rips ·· Антимагическая академия: 35-е экспериментальное подразделение / Taimadou Gakuen 35 Shiken Shoutai [TV] [01 из 12] [Без хардсаба] [RUS(ext), JAP, SUB] [2015 г., Экшен, Сверхъестественное, Военное, Этти, Фэнтези, Романтика, Гарем, HDTVRip] [720p] Galfimbul 362550163346 MB 0 0 1444860014

01:00

15-Окт-15

Еще никто не оставлял запись к записи скачать торрент Антимагическая академия: 35-е экспериментальное подразделение Taimadou Gakuen 35 Shiken Shoutai . Будь первым!

!Обратная связь