Скачать через торрент Я стал образцом простолюдина в школе благородных девиц Ore ga Ojou-sama Gakkou ni "Shomin Sample" Toshite Gets-sareta Ken бесплатно Аниме Все серии на русском torrent

Если у вас наблюдаются проблемы со скриншотами, переходом по ссылками, скачиванием торрентов - проблемы в блокировщике рекламы AdBlock. #хорошегоДня!


Статистика раздачи
Размер:  352 MB   |    Зарегистрирован:  2 года 1 месяц   |    .torrent скачан:  17 раз   |   
Раздают:  1  
   
Загрузка...
 
Автор Сообщение

Galfimbul

avatar Galfimbul


Я стал образцом простолюдина в школе благородных девиц / Ore ga Ojou-sama Gakkou ni "Shomin Sample" Toshite Gets-sareta Ken

Страна: Япония
Год выпуска: 2015 г.
Жанр: комедия, этти, романтика
Тип: TV
Продолжительность: 12 эп. по 24 мин.
Режиссер: Дзимбо Масато
Студия: Silver Link

Перевод:
русские субтитры от GerKo
(Перевод: Gerale; Редакция: Komugi-chan)

Описание: Казалось бы, в современном мире, где глобализация победно шествует по планете, технологии продолжают стремительное развитие, а самые обычные люди всё чаще путешествуют по миру, места для пережитков прошлого попросту не осталось. Кимито Кагуразака на собственном печальном опыте убедился, что в действительности так только кажется. Волею судьбы он очутился в настоящем рассаднике старомодных ценностей и социальной отсталости – в изолированной школе для благородных девиц, которые ни с мальчиками, ни с мобильными телефонами, ни с правилами общения между «простыми смертными» толком не знакомы.

Впрочем, девицам стоит отдать должное: внешний мир пробуждает у них глубочайший интерес, и до выхода в свет они очень хотят побольше узнать о жизни «простолюдинов». Именно в роли штатного простолюдина, способного ответить на все интересующие их вопросы, Кимито и был принят в школу – точнее, похищен и привезён силой, но кого же, кроме него самого, волнуют такие мелочи? А самое неприятное во всём этом то, что Кимито даже приударить за этими красотками не может: его похитили под ложным впечатлением, будто он интересуется мальчиками и никакой опасности для юных дев не представляет. И если Кимито не хочет новых бед на свою несчастную голову, ему придётся соответствовать этому имиджу и быть паинькой.

Качество: HDTVRip
Тип релиза: Без хардсаба
Формат видео: MP4
Наличие линковки: Нет
Релиз/Автор рипа: Leopard-Raws
Видео: x264 (8 bit), 1280x720, ~1900 Kbps, 23.976 fps
Аудио JAP: AAC, 48000 Hz, ~192 Kbps, 2 ch
Субтитры RUS: ASS, внешние
GeneralComplete name : C:\Documents and Settings\Администратор\Мои документы\Downloads\Shomin Sample\[Leopard-Raws] Ore ga Ojou-sama Gakkou ni [Shomin Sample] Toshite Gets-sareta Ken - 01 RAW (ATX 1280x720 x264 AAC).mp4Format : MPEG-4Format profile : Base MediaCodec ID : isomFile size : 352 MiBDuration : 24mn 0sOverall bit rate mode : VariableOverall bit rate : 2 049 KbpsEncoded date : UTC 2015-10-07 19:48:42Tagged date : UTC 2015-10-07 19:48:42

VideoID : 1Format : AVCFormat/Info : Advanced Video CodecFormat profile : High@L4.1Format settings, CABAC : YesFormat settings, ReFrames : 4 framesCodec ID : avc1Codec ID/Info : Advanced Video CodingDuration : 24mn 0sBit rate : 1 853 KbpsMaximum bit rate : 8 934 KbpsWidth : 1 280 pixelsHeight : 720 pixelsDisplay aspect ratio : 16:9Frame rate mode : ConstantFrame rate : 23.976 fpsColor space : YUVChroma subsampling : 4:2:0Bit depth : 8 bitsScan type : ProgressiveBits/(Pixel*Frame) : 0.084Stream size : 318 MiB (90%)Title : 264:fps=23.976@GPAC0.5.1-DEV-rev4929Writing library : x264 core 129 r2245+729M 1a52e03Encoding settings : cabac=1 / ref=4 / deblock=1:1:-1 / analyse=0x3:0x113 / me=umh / subme=9 / psy=1 / fade_compensate=0.00 / psy_rd=1.00:0.00 / mixed_ref=1 / me_range=24 / chroma_me=1 / trellis=2 / 8x8dct=1 / cqm=0 / deadzone=21,11 / fast_pskip=1 / chroma_qp_offset=-2 / threads=8 / lookahead_threads=1 / sliced_threads=0 / nr=0 / decimate=1 / interlaced=0 / bluray_compat=0 / constrained_intra=0 / fgo=0 / bframes=9 / b_pyramid=2 / b_adapt=2 / b_bias=0 / direct=1 / weightb=1 / open_gop=0 / weightp=2 / keyint=240 / keyint_min=24 / scenecut=40 / intra_refresh=0 / rc=crf / mbtree=0 / crf=18.5 / qcomp=0.72 / qpmin=0 / qpmax=69 / qpstep=4 / ip_ratio=1.40 / pb_ratio=1.30 / aq=1:0.85Encoded date : UTC 2015-10-07 19:48:42Tagged date : UTC 2015-10-07 19:48:45Color primaries : BT.709Transfer characteristics : BT.709Matrix coefficients : BT.709

AudioID : 2Format : AACFormat/Info : Advanced Audio CodecFormat profile : LCCodec ID : 40Duration : 24mn 0sBit rate mode : VariableBit rate : 192 KbpsMaximum bit rate : 229 KbpsChannel count : 2 channelsChannel positions : Front: L RSampling rate : 48.0 KHzCompression mode : LossyStream size : 33.0 MiB (9%)Language : JapaneseEncoded date : UTC 2015-10-07 17:21:59Tagged date : UTC 2015-10-07 19:48:45
01. Добро пожаловать, обыватель


Трекер:  [ 14-Окт-2015 22:30 ]

  

Скачать .torrent

Размер .torrent файла 14 KB


Размер: 352 MB
Хэш (hash) релиза: b30979c2b84216e3bd7073bbc933c2904c313909
Подписка на обновления:

Торренты, похожие на Я стал образцом простолюдина в школе благородных девиц Ore ga Ojou-sama Gakkou ni "Shomin Sample" Toshite Gets-sareta Ken скачать торрент

Форум Название Автор Размер S L Добавлен
Аниме | HD Rips ·· Я стал образцом простолюдина в школе благородных девиц / Ore ga Ojou-sama Gakkou ni "Shomin Sample" Toshite Gets-sareta Ken (Дзимбо Масато) [TV+Special] [12+6 из 12+6] [Без хардсаба] [JAP+SUB] [2015 г., комедия, этти, BDRip] [1080p] Galfimbul 1788435880916.66 GB 0 0 1469789988

13:59

29-Июл-16

Аниме | HD Rips ·· Я стал образцом простолюдина в школе благородных девиц / Ore ga Ojou-sama Gakkou ni "Shomin Sample" Toshite Gets-sareta Ken (Дзимбо Масато) [TV+Special] [12+1-4,6 из 12+6] [Без хардсаба] [JAP+SUB] [2015 г., комедия, этти, BDRip] [1080p] Galfimbul 1767432003516.46 GB 0 0 1468074773

17:32

9-Июл-16

Аниме | HD Rips ·· Я стал образцом простолюдина в школе благородных девиц / Ore ga Ojou-sama Gakkou ni "Shomin Sample" Toshite Gets-sareta Ken (Дзимбо Масато) [TV+Special] [10+3 из 12+6] [Без хардсаба] [JAP+SUB] [2015 г., комедия, этти, BDRip] [1080p] Galfimbul 1332744396212.41 GB 0 0 1464555950

00:05

30-Май-16

Аниме | HD Rips ·· Я стал образцом простолюдина в школе благородных девиц / Ore ga Ojou-sama Gakkou ni "Shomin Sample" Toshite Gets-sareta Ken [TV+Special] [01-02+1 из 12+6] [Без хардсаба] [JAP+SUB] [2015 г., комедия, этти, романтика, BDRip] [1080p] Galfimbul 27607419342.57 GB 0 0 1454045022

08:23

29-Янв-16

Аниме | HD Rips ·· Я стал образцом простолюдина в школе благородных девиц / Ore ga Ojou-sama Gakkou ni "Shomin Sample" Toshite Gets-sareta Ken (Дзимбо Масато) [TV] [01-02 из 12] [Без хардсаба] [JAP+SUB] [2015 г., комедия, этти, романтика, BDRip] [1080p] Galfimbul 26118248012.43 GB 0 0 1452323233

10:07

9-Янв-16

Еще никто не оставлял запись к записи скачать торрент Я стал образцом простолюдина в школе благородных девиц Ore ga Ojou-sama Gakkou ni "Shomin Sample" Toshite Gets-sareta Ken . Будь первым!

!Обратная связь