Скачать через торрент Комета Люцифера Comet Lucifer бесплатно Аниме Все серии на русском torrent

Если у вас наблюдаются проблемы со скриншотами, переходом по ссылками, скачиванием торрентов - проблемы в блокировщике рекламы AdBlock. #хорошегоДня!


Статистика раздачи
Размер:  971 MB   |    Зарегистрирован:  1 год 11 месяцев   |    .torrent скачан:  3 раза   |   
Раздают:  1  
   
Загрузка...
 
Автор Сообщение

Galfimbul

avatar Galfimbul


Комета Люцифера / Comet Lucifer
Страна: Япония
Год выпуска: 2015 г.
Тип: TV
Жанр: Приключения, фэнтези
Продолжительность: 12 эп. по 25 мин
Русские субтитры: ningen
Русские субтитры #2: Antravoco
Редактор: Advokat
Переводчик/Оформление: chainsaws
Редактор: Kekcelt
Русские субтитры #3: Veles & tengri
Переводчик: tengri
Перевод песен: Veles

Режиссер: Кикути Ясухито

Студия:

Описание: События данного аниме перенесут нас на планету Гифт, которая знаменита и очень богата залежами драгоценных кристаллов, называемые гифтджиуми. В довольно таки процветающем шахтерском городке под названием Сад Индиго проживает парень Сёго, промышляющий сбором редких кристаллов. Так случилось, что ему приходится уйти из городка. Герой заблудившись, находит подземное озеро, возникшее на месте горных разработок. Там он встречает загадочную красноглазую девушку с голубыми волосами. Далее история расскажет о приключениях, которые ждут их впереди.

Качество: HDTVRip | Равка: Leopard-Raws Формат: mp4 | Тип Видео: без хардсаба
Видео кодек: AVC
Видео: AVC, 8 bits, 1280x720, 2672 kbps, 23.976 fps, (16:9)
JP - AAC, 192 kbps, 48.0 KHz, 2 ch Язык Японский
01.The Boy and the Vast Land
02. Under One Roof
Общее
Полное имя : D:\[Leopard-Raws]\[Leopard-Raws] Comet Lucifer\[Leopard-Raws] Comet Lucifer - 01 RAW (KBS 1280x720 x264 AAC).mp4
Формат : MPEG-4
Профиль формата : Base Media
Идентификатор кодека : isom
Размер файла : 492 Мбайт
Продолжительность : 23 м.
Режим общего битрейта : Переменный
Общий поток : 2868 Кбит/сек
Дата кодирования : UTC 2015-10-04 16:19:04
Дата пометки : UTC 2015-10-04 16:19:04

Видео
Идентификатор : 1
Формат : AVC
Формат/Информация : Advanced Video Codec
Профиль формата : High@L4.1
Параметр CABAC формата : Да
Параметр ReFrames формата : 4 кадра
Идентификатор кодека : avc1
Идентификатор кодека/Информация : Advanced Video Coding
Продолжительность : 23 м.
Битрейт : 2672 Кбит/сек
Максимальный битрейт : 15,4 Мбит/сек
Ширина : 1280 пикселей
Высота : 720 пикселей
Соотношение сторон : 16:9
Режим частоты кадров : Постоянный
Частота кадров : 23,976 кадра/сек
Цветовое пространство : YUV
Субдискретизация насыщенности : 4:2:0
Битовая глубина : 8 бит
Тип развёртки : Прогрессивная
Бит/(Пиксели*Кадры) : 0.121
Размер потока : 459 Мбайт (93%)
Заголовок : 264:fps=23.976@GPAC0.5.1-DEV-rev4929
Библиотека кодирования : x264 core 129 r2245+729M 1a52e03
Настройки программы : cabac=1 / ref=4 / deblock=1:1:-1 / analyse=0x3:0x113 / me=umh / subme=9 / psy=1 / fade_compensate=0.00 / psy_rd=1.00:0.00 / mixed_ref=1 / me_range=24 / chroma_me=1 / trellis=2 / 8x8dct=1 / cqm=0 / deadzone=21,11 / fast_pskip=1 / chroma_qp_offset=-2 / threads=8 / lookahead_threads=1 / sliced_threads=0 / nr=0 / decimate=1 / interlaced=0 / bluray_compat=0 / constrained_intra=0 / fgo=0 / bframes=9 / b_pyramid=2 / b_adapt=2 / b_bias=0 / direct=1 / weightb=1 / open_gop=0 / weightp=2 / keyint=240 / keyint_min=24 / scenecut=40 / intra_refresh=0 / rc=crf / mbtree=0 / crf=18.5 / qcomp=0.72 / qpmin=0 / qpmax=69 / qpstep=4 / ip_ratio=1.40 / pb_ratio=1.30 / aq=1:0.85
Дата кодирования : UTC 2015-10-04 16:19:04
Дата пометки : UTC 2015-10-04 16:19:09
Основные цвета : BT.709
Характеристики трансфера : BT.709
Коэффициенты матрицы : BT.709

Аудио
Идентификатор : 2
Формат : AAC
Формат/Информация : Advanced Audio Codec
Профиль формата : LC
Идентификатор кодека : 40
Продолжительность : 23 м.
Вид битрейта : Переменный
Битрейт : 192 Кбит/сек
Максимальный битрейт : 230 Кбит/сек
Каналы : 2 канала
Расположение каналов : Front: L R
Частота : 48,0 КГц
Метод сжатия : С потерями
Размер потока : 32,9 Мбайт (7%)
Язык : Japanese
Дата кодирования : UTC 2015-10-04 15:08:55
Дата пометки : UTC 2015-10-04 16:19:09


Обновите торент файл, добавлена 2я серия

Трекер:  [ 14-Окт-2015 22:30 ]

  

Скачать .torrent

Размер .torrent файла 20 KB


Размер: 971 MB
Хэш (hash) релиза: 71d48077447402aaba3e495986475e67f0fb9bad
Подписка на обновления:

Торренты, похожие на Комета Люцифера Comet Lucifer скачать торрент

Форум Название Автор Размер S L Добавлен
Аниме | HD Rips ·· Комета Люцифера / Comet Lucifer (Кикути Ясухито) [TV] [6 из 12] [Без хардсаба] [RUS(ext), JAP+SUB] [2015, приключения, фантастика, меха, BDRip] [1080p] Galfimbul 88891302148.28 GB 0 0 1481725744

17:29

14-Дек-16

Аниме | Rips ·· Комета Люцифера / Comet Lucifer [TV] [12 из 12] [Без хардсаба] [RUS(int), JAP+SUB] [2015 г., приключения, фантастика, меха, HDTVRip] [HWP] Galfimbul 46603828264.34 GB 0 0 1461496600

14:16

24-Апр-16

Аниме | HD Rips ·· Комета Люцифера / Comet Lucifer (Кикути Ясухито) [TV] [01-12 из 12] [Без хардсаба] [RUS(int)+JAP+SUB] [2015, Приключения, фантастика, меха, HDTVRip] [720p] Galfimbul 63681324965.93 GB 0 0 1454950768

19:59

8-Фев-16

Аниме | Rips ·· Комета Люцифера / Comet Lucifer [TV] [01-04 из 12] [Без хардсаба] [RUS(int), JAP+SUB] [2015 г., приключения, фантастика, меха, HDTVRip] [HWP] Galfimbul 16234667851.51 GB 0 0 1449253851

21:30

4-Дек-15

Аниме | Rips ·· Комета Люцифер / Comet Lucifer [TV] [01-02 из 12] [Без хардсаба] [RUS(ext), JAP, SUB] [2015 г., Приключения, Фэнтези, HDTVRip] [720p] Galfimbul 12491582121.16 GB 0 0 1444858702

00:38

15-Окт-15

Аниме | Rips ·· Комета Люцифер / Comet Lucifer (Кикути Ясухито) [TV] [01 из 12] [без хардсаба] [RUS(int), JAP+SUB] [2015 г., приключения, фентези, WEBRip] [720p] Galfimbul 372215689355 MB 0 0 1444858661

00:37

15-Окт-15

Еще никто не оставлял запись к записи скачать торрент Комета Люцифера Comet Lucifer . Будь первым!

!Обратная связь