Скачать через торрент Доблестный рыцарь-неудачник Rakudai Kishi no Cavalry бесплатно Аниме Все серии на русском torrent

Если у вас наблюдаются проблемы со скриншотами, переходом по ссылками, скачиванием торрентов - проблемы в блокировщике рекламы AdBlock. #хорошегоДня!


Статистика раздачи
Размер:  837 MB   |    Зарегистрирован:  1 год 11 месяцев   |    .torrent скачан:  13 раз   |   
Раздают:  1  
   
Загрузка...
 
Автор Сообщение

Galfimbul

avatar Galfimbul


Доблестный рыцарь-неудачник / Chivalry of a Failed Knight / Rakudai Kishi no Cavalry Gensou
Страна: Япония
Год выпуска: 2015 г.
Тип: TV
Жанр: Приключения, экшен, фэнтези, романтика, школа
Продолжительность: 12 эп. по 25 мин
Русские субтитры: Матадор

Русские субтитры # 2: Asada Shire ft. Esito
Переводчик/Тайм-код/Перевод песен/Оформление: Asada Shire
Редактор: Esito

Режиссер: Онума Син

Студия:

Описание: В этом мире, во время использования магии колдуны превращают свои души в магические мечи. Для обучения подобных магов в Японии существует семь школ рыцарей. В одной из таких школ, академии Хагун, учится главный персонаж Икки известный за практически полное отсутствие способностей к магии. Однажды к нему в комнату селят Стелу, принцессу Вермилиона обладающую превосходными способностями. Несмотря на первоначальные разногласия вскоре Стела и Икки становятся друзьями.

Качество: HDTVRip | Равка: Leopard-Raws Формат: mp4 | Тип Видео: без хардсаба
Видео кодек: AVC
Видео: AVC, 8 bits, 1280x720, 2098 kbps, 23.976 fps, (16:9)
JP - AAC, 192 kbps, 48.0 KHz, 2 ch Язык Японский
RUS - AAC, 192 kbps, 48.0 KHz, 2 ch Язык Русский (внешним файлом) двухголосый (муж+жен), Inspector_Gadjet, Nika Lenina
01. The Worst One I
02. The Worst One II
Общее
Полное имя : D:\[Leopard-Raws]\[Leopard-Raws] Rakudai Kishi no Cavalry\[Leopard-Raws] Rakudai Kishi no Cavalry - 01 RAW (ATX 1280x720 x264 AAC).mp4
Формат : MPEG-4
Профиль формата : Base Media
Идентификатор кодека : isom
Размер файла : 396 Мбайт
Продолжительность : 24 м.
Режим общего битрейта : Переменный
Общий поток : 2294 Кбит/сек
Дата кодирования : UTC 2015-10-03 18:27:55
Дата пометки : UTC 2015-10-03 18:27:55

Видео
Идентификатор : 1
Формат : AVC
Формат/Информация : Advanced Video Codec
Профиль формата : High@L4.1
Параметр CABAC формата : Да
Параметр ReFrames формата : 4 кадра
Идентификатор кодека : avc1
Идентификатор кодека/Информация : Advanced Video Coding
Продолжительность : 24 м.
Битрейт : 2098 Кбит/сек
Максимальный битрейт : 9855 Кбит/сек
Ширина : 1280 пикселей
Высота : 720 пикселей
Соотношение сторон : 16:9
Режим частоты кадров : Постоянный
Частота кадров : 23,976 кадра/сек
Цветовое пространство : YUV
Субдискретизация насыщенности : 4:2:0
Битовая глубина : 8 бит
Тип развёртки : Прогрессивная
Бит/(Пиксели*Кадры) : 0.095
Размер потока : 363 Мбайт (91%)
Заголовок : 264:fps=23.976@GPAC0.5.1-DEV-rev4929
Библиотека кодирования : x264 core 129 r2245+729M 1a52e03
Настройки программы : cabac=1 / ref=4 / deblock=1:1:-1 / analyse=0x3:0x113 / me=umh / subme=9 / psy=1 / fade_compensate=0.00 / psy_rd=1.00:0.00 / mixed_ref=1 / me_range=24 / chroma_me=1 / trellis=2 / 8x8dct=1 / cqm=0 / deadzone=21,11 / fast_pskip=1 / chroma_qp_offset=-2 / threads=8 / lookahead_threads=1 / sliced_threads=0 / nr=0 / decimate=1 / interlaced=0 / bluray_compat=0 / constrained_intra=0 / fgo=0 / bframes=9 / b_pyramid=2 / b_adapt=2 / b_bias=0 / direct=1 / weightb=1 / open_gop=0 / weightp=2 / keyint=240 / keyint_min=24 / scenecut=40 / intra_refresh=0 / rc=crf / mbtree=0 / crf=18.5 / qcomp=0.72 / qpmin=0 / qpmax=69 / qpstep=4 / ip_ratio=1.40 / pb_ratio=1.30 / aq=1:0.85
Дата кодирования : UTC 2015-10-03 18:27:55
Дата пометки : UTC 2015-10-03 18:27:57
Основные цвета : BT.709
Характеристики трансфера : BT.709
Коэффициенты матрицы : BT.709

Аудио
Идентификатор : 2
Формат : AAC
Формат/Информация : Advanced Audio Codec
Профиль формата : LC
Идентификатор кодека : 40
Продолжительность : 24 м.
Вид битрейта : Переменный
Битрейт : 192 Кбит/сек
Максимальный битрейт : 247 Кбит/сек
Каналы : 2 канала
Расположение каналов : Front: L R
Частота : 48,0 КГц
Метод сжатия : С потерями
Размер потока : 33,2 Мбайт (8%)
Язык : Japanese
Дата кодирования : UTC 2015-10-03 14:45:35
Дата пометки : UTC 2015-10-03 18:27:57


Обновите торент файл, добавлена 2я серия и озвучка к ней

Трекер:  [ 14-Окт-2015 22:30 ]

  

Скачать .torrent

Размер .torrent файла 18 KB


Размер: 837 MB
Хэш (hash) релиза: fdce2f7e8489793ea977362ee0da84165db7993f
Подписка на обновления:

Еще никто не оставлял запись к записи скачать торрент Доблестный рыцарь-неудачник Rakudai Kishi no Cavalry . Будь первым!

!Обратная связь