Скачать через торрент музыку Орел Девятого легиона The Eagle бесплатно без регистрации torrent

Если у вас наблюдаются проблемы со скриншотами, переходом по ссылками, скачиванием торрентов - проблемы в блокировщике рекламы AdBlock. #хорошегоДня!


Статистика раздачи
Размер:  280 MB   |    Зарегистрирован:  6 лет 5 месяцев   |    .torrent скачан:  57 раз   |   
Раздают:  1  
   
Загрузка...
 
Автор Сообщение

L


Орел Девятого легиона | The Eagle


Жанр: Score
Композитор: Atli Örvarsson
Год выпуска диска: 2011
Страна-производитель диска: Sweden
Издатель (лейбл): Silva Screen Records
Номер по каталогу:SILCD1359
Аудио кодек: FLAC (*.flac)
Тип рипа: tracks+.cue
Битрейт аудио: lossless
Продолжительность: 00:48:41
Источник: собственный рип
Наличие сканов в содержимом раздачи: да

Треклист:
1. Testudo (02:47)
2. Highlands (02:14)
3. The Return of the Eagle (02:58)
4. The Ninth Legion (02:18)
5. North of the Wall (02:04)
6. Honourable Discharge (02:36)
7. Out Swords! (02:52)
8. May Your Souls Take Flight (04:11)
9. The Seal People (02:38)
10. Searching (03:51)
11. Barbarians (02:45)
12. I Will Return (02:25)
13. Better Angry Than Dead (01:48)
14. Eagle Lost, Honour Lost (01:33)
15. Fleeing the Village (03:33)
16. Edge of the World (01:53)
17. Esca's Freedom (01:42)
18. Beyond the Territories (04:33)
 
Exact Audio Copy V0.99 prebeta 4 from 23. January 2008

EAC extraction logfile from 31. March 2011, 13:18

Atli Orvarsson / The Eagle

Used drive : Optiarc DVD RW AD-7241S Adapter: 1 ID: 1

Read mode : SecureUtilize accurate stream : YesDefeat audio cache : YesMake use of C2 pointers : No

Read offset correction : 48Overread into Lead-In and Lead-Out : NoFill up missing offset samples with silence : YesDelete leading and trailing silent blocks : NoNull samples used in CRC calculations : YesUsed interface : Installed external ASPI interfaceGap handling : Appended to previous track

Used output format : User Defined EncoderSelected bitrate : 1024 kBit/sQuality : HighAdd ID3 tag : NoCommand line compressor : C:\Program Files\Exact Audio Copy\Flac\flac.exeAdditional command line options : -8 -V -T "ARTIST=%a" -T "TITLE=%t" -T "ALBUM=%g" -T "DATE=%y" -T "TRACKNUMBER=%n" -T "GENRE=%m" -T "COMMENT=EAC FLAC -8" %s

TOC of the extracted CD

Track | Start | Length | Start sector | End sector --------------------------------------------------------- 1 | 0:00.00 | 2:47.71 | 0 | 12595 2 | 2:47.71 | 2:14.37 | 12596 | 22682 3 | 5:02.33 | 2:58.20 | 22683 | 36052 4 | 8:00.53 | 2:18.43 | 36053 | 46445 5 | 10:19.21 | 2:04.06 | 46446 | 55751 6 | 12:23.27 | 2:36.15 | 55752 | 67466 7 | 14:59.42 | 2:52.31 | 67467 | 80397 8 | 17:51.73 | 4:10.74 | 80398 | 99221 9 | 22:02.72 | 2:38.67 | 99222 | 111138 10 | 24:41.64 | 3:51.08 | 111139 | 128471 11 | 28:32.72 | 2:45.27 | 128472 | 140873 12 | 31:18.24 | 2:25.11 | 140874 | 151759 13 | 33:43.35 | 1:48.17 | 151760 | 159876 14 | 35:31.52 | 1:33.30 | 159877 | 166881 15 | 37:05.07 | 3:33.58 | 166882 | 182914 16 | 40:38.65 | 1:53.06 | 182915 | 191395 17 | 42:31.71 | 1:42.49 | 191396 | 199094 18 | 44:14.45 | 4:33.07 | 199095 | 219576

Track 1

Filename F:\torrent\The Eagle_Atli Orvarsson\score\01. Atli Orvarsson – Testudo.wav

Pre-gap length 0:00:02.00

Peak level 97.5 % Track quality 100.0 % Test CRC A71C724E Copy CRC A71C724E Track not present in AccurateRip database Copy OK

Track 2

Filename F:\torrent\The Eagle_Atli Orvarsson\score\02. Atli Orvarsson – Highlands.wav

Peak level 47.2 % Track quality 99.9 % Test CRC 20A6B0CC Copy CRC 20A6B0CC Track not present in AccurateRip database Copy OK

Track 3

Filename F:\torrent\The Eagle_Atli Orvarsson\score\03. Atli Orvarsson – The Return of the Eagle.wav

Peak level 97.5 % Track quality 100.0 % Test CRC E51B7D15 Copy CRC E51B7D15 Track not present in AccurateRip database Copy OK

Track 4

Filename F:\torrent\The Eagle_Atli Orvarsson\score\04. Atli Orvarsson – The Ninth Legion.wav

Peak level 95.9 % Track quality 100.0 % Test CRC 2C6DCE1A Copy CRC 2C6DCE1A Track not present in AccurateRip database Copy OK

Track 5

Filename F:\torrent\The Eagle_Atli Orvarsson\score\05. Atli Orvarsson – North of the Wall.wav

Peak level 96.8 % Track quality 100.0 % Test CRC A24312BB Copy CRC A24312BB Track not present in AccurateRip database Copy OK

Track 6

Filename F:\torrent\The Eagle_Atli Orvarsson\score\06. Atli Orvarsson – Honourable Discharge.wav

Peak level 29.7 % Track quality 100.0 % Test CRC 3FEDAD4C Copy CRC 3FEDAD4C Track not present in AccurateRip database Copy OK

Track 7

Filename F:\torrent\The Eagle_Atli Orvarsson\score\07. Atli Orvarsson – Out Swords!.wav

Peak level 97.5 % Track quality 100.0 % Test CRC 476C99E4 Copy CRC 476C99E4 Track not present in AccurateRip database Copy OK

Track 8

Filename F:\torrent\The Eagle_Atli Orvarsson\score\08. Atli Orvarsson – May Your Souls Take Flight.wav

Peak level 92.2 % Track quality 100.0 % Test CRC 06A01AA3 Copy CRC 06A01AA3 Track not present in AccurateRip database Copy OK

Track 9

Filename F:\torrent\The Eagle_Atli Orvarsson\score\09. Atli Orvarsson – The Seal People.wav

Peak level 96.7 % Track quality 100.0 % Test CRC BCEDC96D Copy CRC BCEDC96D Track not present in AccurateRip database Copy OK

Track 10

Filename F:\torrent\The Eagle_Atli Orvarsson\score\10. Atli Orvarsson – Searching.wav

Peak level 97.5 % Track quality 99.9 % Test CRC 5011B255 Copy CRC 5011B255 Track not present in AccurateRip database Copy OK

Track 11

Filename F:\torrent\The Eagle_Atli Orvarsson\score\11. Atli Orvarsson – Barbarians.wav

Peak level 97.5 % Track quality 99.9 % Test CRC 4BF4583B Copy CRC 4BF4583B Track not present in AccurateRip database Copy OK

Track 12

Filename F:\torrent\The Eagle_Atli Orvarsson\score\12. Atli Orvarsson – I Will Return.wav

Peak level 97.5 % Track quality 100.0 % Test CRC 4F84AD93 Copy CRC 4F84AD93 Track not present in AccurateRip database Copy OK

Track 13

Filename F:\torrent\The Eagle_Atli Orvarsson\score\13. Atli Orvarsson – Better Angry Than Dead.wav

Peak level 97.5 % Track quality 99.9 % Test CRC 04D7D313 Copy CRC 04D7D313 Track not present in AccurateRip database Copy OK

Track 14

Filename F:\torrent\The Eagle_Atli Orvarsson\score\14. Atli Orvarsson – Eagle Lost, Honour Lost.wav

Peak level 37.7 % Track quality 100.0 % Test CRC 15421345 Copy CRC 15421345 Track not present in AccurateRip database Copy OK

Track 15

Filename F:\torrent\The Eagle_Atli Orvarsson\score\15. Atli Orvarsson – Fleeing the Village.wav

Peak level 97.5 % Track quality 100.0 % Test CRC D26581CF Copy CRC D26581CF Track not present in AccurateRip database Copy OK

Track 16

Filename F:\torrent\The Eagle_Atli Orvarsson\score\16. Atli Orvarsson – Edge of the World.wav

Peak level 49.9 % Track quality 100.0 % Test CRC BC0FE442 Copy CRC BC0FE442 Track not present in AccurateRip database Copy OK

Track 17

Filename F:\torrent\The Eagle_Atli Orvarsson\score\17. Atli Orvarsson – Esca's Freedom.wav

Peak level 42.0 % Track quality 100.0 % Test CRC 32C69EC1 Copy CRC 32C69EC1 Track not present in AccurateRip database Copy OK

Track 18

Filename F:\torrent\The Eagle_Atli Orvarsson\score\18. Atli Orvarsson – Beyond the Territories.wav

Peak level 97.5 % Track quality 100.0 % Test CRC 6E4E2ADE Copy CRC 6E4E2ADE Track not present in AccurateRip database Copy OK

None of the tracks are present in the AccurateRip database

No errors occurred

End of status report
 
REM GENRE SoundtrackREM DATE 2011REM DISCID D80B6F12REM COMMENT "ExactAudioCopy v0.99pb4"PERFORMER "Atli Orvarsson"TITLE "The Eagle"FILE "01. Atli Orvarsson – Testudo.wav" WAVE TRACK 01 AUDIO TITLE "Testudo" PERFORMER "Atli Orvarsson" INDEX 01 00:00:00FILE "02. Atli Orvarsson – Highlands.wav" WAVE TRACK 02 AUDIO TITLE "Highlands" PERFORMER "Atli Orvarsson" INDEX 01 00:00:00FILE "03. Atli Orvarsson – The Return of the Eagle.wav" WAVE TRACK 03 AUDIO TITLE "The Return of the Eagle" PERFORMER "Atli Orvarsson" INDEX 01 00:00:00FILE "04. Atli Orvarsson – The Ninth Legion.wav" WAVE TRACK 04 AUDIO TITLE "The Ninth Legion" PERFORMER "Atli Orvarsson" INDEX 01 00:00:00FILE "05. Atli Orvarsson – North of the Wall.wav" WAVE TRACK 05 AUDIO TITLE "North of the Wall" PERFORMER "Atli Orvarsson" INDEX 01 00:00:00FILE "06. Atli Orvarsson – Honourable Discharge.wav" WAVE TRACK 06 AUDIO TITLE "Honourable Discharge" PERFORMER "Atli Orvarsson" INDEX 01 00:00:00FILE "07. Atli Orvarsson – Out Swords!.wav" WAVE TRACK 07 AUDIO TITLE "Out Swords!" PERFORMER "Atli Orvarsson" INDEX 01 00:00:00FILE "08. Atli Orvarsson – May Your Souls Take Flight.wav" WAVE TRACK 08 AUDIO TITLE "May Your Souls Take Flight" PERFORMER "Atli Orvarsson" INDEX 01 00:00:00FILE "09. Atli Orvarsson – The Seal People.wav" WAVE TRACK 09 AUDIO TITLE "The Seal People" PERFORMER "Atli Orvarsson" INDEX 01 00:00:00FILE "10. Atli Orvarsson – Searching.wav" WAVE TRACK 10 AUDIO TITLE "Searching" PERFORMER "Atli Orvarsson" INDEX 01 00:00:00FILE "11. Atli Orvarsson – Barbarians.wav" WAVE TRACK 11 AUDIO TITLE "Barbarians" PERFORMER "Atli Orvarsson" INDEX 01 00:00:00FILE "12. Atli Orvarsson – I Will Return.wav" WAVE TRACK 12 AUDIO TITLE "I Will Return" PERFORMER "Atli Orvarsson" INDEX 01 00:00:00FILE "13. Atli Orvarsson – Better Angry Than Dead.wav" WAVE TRACK 13 AUDIO TITLE "Better Angry Than Dead" PERFORMER "Atli Orvarsson" INDEX 01 00:00:00FILE "14. Atli Orvarsson – Eagle Lost, Honour Lost.wav" WAVE TRACK 14 AUDIO TITLE "Eagle Lost, Honour Lost" PERFORMER "Atli Orvarsson" INDEX 01 00:00:00FILE "15. Atli Orvarsson – Fleeing the Village.wav" WAVE TRACK 15 AUDIO TITLE "Fleeing the Village" PERFORMER "Atli Orvarsson" INDEX 01 00:00:00FILE "16. Atli Orvarsson – Edge of the World.wav" WAVE TRACK 16 AUDIO TITLE "Edge of the World" PERFORMER "Atli Orvarsson" INDEX 01 00:00:00FILE "17. Atli Orvarsson – Esca's Freedom.wav" WAVE TRACK 17 AUDIO TITLE "Esca's Freedom" PERFORMER "Atli Orvarsson" INDEX 01 00:00:00FILE "18. Atli Orvarsson – Beyond the Territories.wav" WAVE TRACK 18 AUDIO TITLE "Beyond the Territories" PERFORMER "Atli Orvarsson" INDEX 01 00:00:00


Трекер:  [ 09-Апр-2011 21:07 ]

  

Скачать .torrent

Размер .torrent файла 13 KB


Размер: 280 MB
Хэш (hash) релиза: c00bc52fb596f3c35f3c4b577c763a0ff270d640

Торренты, похожие на Орел Девятого легиона The Eagle скачать торрент

Форум Название Автор Размер S L Добавлен
Саундтреки ·· (Score) Орел Девятого Легиона / The Eagle (Complete Score) (by Atli Orvarsson) - 2011, MP3, 320 kbps Galfimbul 218873329209 MB 0 0 1339792080

23:28

15-Июн-12

Саундтреки к фильмам и мультфильмам (mp3) ·· (Score) Орел Девятого легиона / The Eagle (by Atli Örvarsson) - 2011, MP3, 320 kbps Phoenix 118993699113 MB 0 0 1300220354

23:19

15-Мар-11

Еще никто не оставлял запись к записи скачать торрент Орел Девятого легиона The Eagle . Будь первым!

!Обратная связь