Скачать через торрент Натюрморт в серых тонах Grisaia no Kajitsu бесплатно Аниме Все серии на русском torrent

Если у вас наблюдаются проблемы со скриншотами, переходом по ссылками, скачиванием торрентов - проблемы в блокировщике рекламы AdBlock. #хорошегоДня!


Статистика раздачи
Размер:  6.09 GB   |    Зарегистрирован:  1 год 11 месяцев   |    .torrent скачан:  52 раза   |   
Раздают:  1  
   
Загрузка...
 
Автор Сообщение

Galfimbul

avatar Galfimbul



Год выпуска: 2014
Страна: Япония
Жанр: романтика, драма
Продолжительность: ТВ, 13 эп. по 25 мин. + 6 спешлов
Выпуск: c 05.10.2014 по 28.12.2014
Перевод:
<ol class="post-ul">
русские субтитры от Timecraft (полные/вспомогательные)
редактор: AleX_MytH, переводчик/перевод песен: Nachtwandler, оформление: Surokune
</ol>
Режиссер: Танака Мотоки
Студия: 8bit
Описание:
Юдзи Кадзами в 10 лет потерял родителей и был воспитан людьми, для которых писаные законы – пустой звук, а чужие жизни – что трава на ветру. Творя разное, парень быстро познал законы темного мира, и ныне его разум отточен, рефлексы – совершенны, а принципы гибки, как стальной клинок. Но даже сталь имеет предел усталости, и «рыцарь ночи» обратился к знакомой хозяйке частной школы с просьбой дать ему возможность пожить жизнью обычного старшеклассника со всеми прилагающимися маленькими радостями. Та ответила, что Юдзи пришел по адресу, ведь академия Михама закрыта для публики, а учатся в ней всего пять девушек!

Но что такое новая школа – крепость пяти затворниц или тюрьма, что защищает мир от их существования? Угрюмая Юмико, затейница Аманэ, маленькая дикарка Макина, фальшивая цундэрэ Митиру и Сати, заигравшаяся в горничную – все они несут в себе какую-то боль, отгородившую их от семьи, сверстников и внешнего мира. Загнанные в круг, девушки не могут помочь себе – спасением может стать лишь человек со стороны, одинокий циник и философ. Так что впереди у Юдзи много работы, но не ждите скучной слезливой романтики – за новую цель и волю к жизни ученицы Михамы кого угодно на куски порвут!
© Hollow, World Art
Информационные ссылки: AniDB || World Art || MAL
Качество: BDRip
Энкод: Winter - RG Pantheon
Тип видео: без хардсаба, без линковки
Формат: mkv
Видео TV: x264 (Hi10p), 1280x720, ~1900 Kbps, 23.976 fps
Видео SP: x264 (Hi10p), 1280x720, ~2500 Kbps, 23.976 fps
Аудио JAP: Vorbis, 48000Hz, ~256 Kbps, 2ch
Аудио RUS 1-2: AC3, 48000Hz, ~192 Kbps, 2ch (внешними файлами)
<ol class="post-ul">
одноголосая (муж.) от FassaD (ARRU) [TV + SP 1-3]

трехголосая от Cuba77 & Nika Lenina & Гамлетка Цезаревна (AniDub) [TV + SP 1-6]
</ol>
01. Ordinary Academy Life
02. School Killer Yumiko
03. Sweet Diet
04. Where to Aim the Silver Bullet
05. Vox in Box
06. Raison d`Etre
07. Letter of Happiness
08. Seed of the World Tree I
09. Seed of the World Tree II
10. Angelic Howl I
11. Angelic Howl II
12. Angelic Howl III
13. 10 Centimeter Field of Fire
[url]...5036339[/url]
[url]...5034888[/url]
[url]...5023984[/url]
- 720p
[url]...4839736[/url]
[url]...4854306[/url]
- BDRip
Общее
Уникальный идентификатор : 235482950603679607846421098482441725208 (0xB1285DD93CC20E5D85A9C23EBE3D2518)
Полное имя : A:\Anime\720p\Grisaia no Kajitsu [BD] [720p]\[W] Grisaia no Kajitsu 01 [BDrip 1280x544 x264 Vorbis].mkv
Формат : Matroska
Версия формата : Version 2
Размер файла : 374 Мбайт
Продолжительность : 23 м.
Режим общего битрейта : Переменный
Общий поток : 2210 Кбит/сек
Дата кодирования : UTC 2015-09-24 19:56:46
Программа кодирования : mkvmerge v2.9.8 ('C'est le bon') built on Aug 13 2009 12:49:06
Библиотека кодирования : libebml v0.7.7 + libmatroska v0.8.1

Видео
Идентификатор : 1
Формат : AVC
Формат/Информация : Advanced Video Codec
Профиль формата : High 10@L4.1
Параметр CABAC формата : Да
Параметр ReFrames формата : 9 кадров
Идентификатор кодека : V_MPEG4/ISO/AVC
Продолжительность : 23 м.
Битрейт : 1910 Кбит/сек
Ширина : 1280 пикселей
Высота : 544 пикселя
Соотношение сторон : 2,35:1
Режим частоты кадров : Постоянный
Частота кадров : 23,976 кадра/сек
Цветовое пространство : YUV
Субдискретизация насыщенности : 4:2:0
Битовая глубина : 10 бит
Тип развёртки : Прогрессивная
Бит/(Пиксели*Кадры) : 0.114
Размер потока : 324 Мбайт (86%)
Библиотека кодирования : x264 core 132 r2309 3b1f1f7
Настройки программы : cabac=1 / ref=9 / deblock=1:-2:-2 / analyse=0x3:0x133 / me=umh / subme=9 / psy=1 / psy_rd=0.90:0.00 / mixed_ref=1 / me_range=24 / chroma_me=1 / trellis=2 / 8x8dct=1 / cqm=0 / deadzone=21,11 / fast_pskip=1 / chroma_qp_offset=-2 / threads=12 / lookahead_threads=2 / sliced_threads=0 / nr=0 / decimate=0 / interlaced=0 / bluray_compat=0 / constrained_intra=0 / bframes=8 / b_pyramid=2 / b_adapt=2 / b_bias=0 / direct=1 / weightb=1 / open_gop=0 / weightp=2 / keyint=250 / keyint_min=23 / scenecut=40 / intra_refresh=0 / rc=crf / mbtree=0 / crf=15.6 / qcomp=0.70 / qpmin=9 / qpmax=40 / qpstep=4 / ip_ratio=1.40 / pb_ratio=1.30 / aq=1:0.90
Default : Нет
Forced : Нет

Аудио
Идентификатор : 2
Формат : Vorbis
Параметр Floor формата : 1
Идентификатор кодека : A_VORBIS
Продолжительность : 23 м.
Вид битрейта : Переменный
Битрейт : 256 Кбит/сек
Каналы : 2 канала
Частота : 48,0 КГц
Метод сжатия : С потерями
Размер потока : 43,4 Мбайт (12%)
Библиотека кодирования : libVorbis (Schaufenugget) (20101101 (Schaufenugget))
Язык : Japanese
Default : Да
Forced : Нет
Общее
Уникальный идентификатор : 215712380635510827555547270308490704796 (0xA248B17DB029B629B44C0B957860F79C)
Полное имя : A:\Anime\720p\Grisaia no Kajitsu [BD] [720p]\SP\[W] Grisaia no Kajitsu (SP 1) [BDrip 1280x720 x264 Vorbis].mkv
Формат : Matroska
Версия формата : Version 2
Размер файла : 58,0 Мбайт
Продолжительность : 2 м. 48 с.
Режим общего битрейта : Переменный
Общий поток : 2890 Кбит/сек
Дата кодирования : UTC 2014-12-30 20:04:28
Программа кодирования : mkvmerge v2.9.8 ('C'est le bon') built on Aug 13 2009 12:49:06
Библиотека кодирования : libebml v0.7.7 + libmatroska v0.8.1

Видео
Идентификатор : 1
Формат : AVC
Формат/Информация : Advanced Video Codec
Профиль формата : High 10@L4.1
Параметр CABAC формата : Да
Параметр ReFrames формата : 9 кадров
Идентификатор кодека : V_MPEG4/ISO/AVC
Продолжительность : 2 м. 48 с.
Битрейт : 2577 Кбит/сек
Ширина : 1280 пикселей
Высота : 720 пикселей
Соотношение сторон : 16:9
Режим частоты кадров : Постоянный
Частота кадров : 23,976 кадра/сек
Цветовое пространство : YUV
Субдискретизация насыщенности : 4:2:0
Битовая глубина : 10 бит
Тип развёртки : Прогрессивная
Бит/(Пиксели*Кадры) : 0.117
Размер потока : 51,7 Мбайт (89%)
Библиотека кодирования : x264 core 132 r2309 3b1f1f7
Настройки программы : cabac=1 / ref=9 / deblock=1:-2:-2 / analyse=0x3:0x133 / me=umh / subme=9 / psy=1 / psy_rd=0.90:0.00 / mixed_ref=1 / me_range=24 / chroma_me=1 / trellis=2 / 8x8dct=1 / cqm=0 / deadzone=21,11 / fast_pskip=1 / chroma_qp_offset=-2 / threads=12 / lookahead_threads=2 / sliced_threads=0 / nr=0 / decimate=0 / interlaced=0 / bluray_compat=0 / constrained_intra=0 / bframes=8 / b_pyramid=2 / b_adapt=2 / b_bias=0 / direct=1 / weightb=1 / open_gop=0 / weightp=2 / keyint=250 / keyint_min=23 / scenecut=40 / intra_refresh=0 / rc=crf / mbtree=0 / crf=15.7 / qcomp=0.70 / qpmin=9 / qpmax=40 / qpstep=4 / ip_ratio=1.40 / pb_ratio=1.30 / aq=1:0.90
Default : Нет
Forced : Нет

Аудио
Идентификатор : 2
Формат : Vorbis
Параметр Floor формата : 1
Идентификатор кодека : A_VORBIS
Продолжительность : 2 м. 48 с.
Вид битрейта : Переменный
Битрейт : 256 Кбит/сек
Каналы : 2 канала
Частота : 48,0 КГц
Метод сжатия : С потерями
Размер потока : 5,13 Мбайт (9%)
Библиотека кодирования : libVorbis (Schaufenugget) (20101101 (Schaufenugget))
Язык : Japanese
Default : Да
Forced : Нет


<ol class="post-ul">
Выбор видео, перевода, озвучки, а также типа сборки материала осуществляется релизером и не подлежит обсуждению. Если вы считаете, что раздаваемый материал противоречит правилам раздела "Аниме" rutracker.org, сообщите об этом одному из модераторов раздела.

В случае появления нового материала или же лучшего по качеству материала релизер оставляет за собой право обновить раздачу. В этом случае вам необходимо ознакомиться с изменениями (добавлениями) и перекачать торрент.

Данный релиз предназначен для просмотра на ПК. Воспроизведение на иных проигрывателях не гарантируется. Для просмотра рекомендуется Media Player Classic с установленным пакетом кодеков K-Lite.

Данный релиз содержит 10-битное видео (Hi10p). Для корректного воспроизведения обязательно используйте кодеки, поддерживающие 10-битное видео.
Обсудить проблемы с воспроизведением и получить дополнительную информацию можно [url=...3682344][b]здесь[/url].

Данный релиз предназначен для просмотра с внешними субтитрами и внешними звуковыми дорожками.
<ol class="post-ul">
Для просмотра с внешней звуковой дорожкой нужно:
перекинуть файлы .mka из папки "RUS Sound [<автор(ы) озвучки>]" в одну папку с видео и переключить звуковую дорожку в плеере при просмотре. Как это сделать в разных плеерах подробно описано [url=...2403326]здесь[/url].
Для просмотра с субтитрами нужно:
перекинуть файлы .ass из папки "RUS Subtitles [<автор(ы) перевода>]" в одну папку с видео - плеер подгрузит их автоматически при открытии видео.
</ol>

Если у вас возникли проблемы с просмотром, не связанные с описанным выше, сообщите о них автору раздачи посредством сообщения в теме или ЛС Aglenn.
</ol>


Трекер:  [ 25-Сен-2015 23:00 ]

  

Скачать .torrent

Размер .torrent файла 41 KB


Размер: 6.09 GB
Хэш (hash) релиза: 77d7238961af96142c85008ed7d5a0714945311e
Подписка на обновления:

Торренты, похожие на Натюрморт в серых тонах Grisaia no Kajitsu скачать торрент

Форум Название Автор Размер S L Добавлен
Аниме | HD Rips ·· Натюрморт в серых тонах / Grisaia no Kajitsu / The Fruit of Grisaia / Le Fruit de la Grisaia (Танака Мотоки) [TV+Special] [01-13+6 из 13+6] [Без хардсаба] [RUS(ext), JAP+SUB] [2014 г., романтика, драма, BDRip] [1080p] Galfimbul 94323965078.78 GB 0 0 1434461558

16:32

16-Июн-15

Аниме | HD Rips ·· Натюрморт в серых тонах / Grisaia no Kajitsu / The Fruit of Grisaia (Танака Мотоки) [TV+Special] [13+6 из 13+6] [Без хардсаба] [RUS(ext), JAP+SUB] [2014 г., романтика, комедия, драма, этти, BDRip] [1080p] Galfimbul 1454379688613.54 GB 0 0 1451930572

21:02

4-Янв-16

Аниме | Rips ·· Натюрморт в серых тонах / Grisaia no Kajitsu / Le Fruit de la Grisaia [TV] [01-03 из >12] [Без хардсаба] [RUS(int), JAP+SUB] [2014 г., романтика, драма, HDTVRip] [HWP] Galfimbul 740029163706 MB 0 0 1414222452

10:34

25-Окт-14

Аниме | HD Rips ·· Натюрморт в серых тонах / Grisaia no Kajitsu [TV+Special] [13+6 из 13+6] [Без хардсаба] [RUS(int), JAP] [2014 г., психологический, комедия, драма, романтика, BDRip] [720p] Galfimbul 42458308123.95 GB 0 0 1453396282

20:11

21-Янв-16

Аниме | HD Rips ·· Натюрморт в серых тонах / Grisaia no Kajitsu [TV] [01 из 13] [Без хардсаба] [RUS(int), JAP+SUB] [2014 г., романтика, драма, BDRip] [1080p] Galfimbul 643311725614 MB 0 0 1437167466

00:11

18-Июл-15

Аниме | HD Rips ·· Натюрморт в серых тонах / Grisaia no Kajitsu (Танака Мотоки) [TV] [3 из 13] [без хардсаба] [RUS(ext), JAP+SUB] [2014 г., романтика, драма, BDRip] [720p] Galfimbul 14888316811.39 GB 0 0 1420015679

11:47

31-Дек-14

Аниме | Rips ·· Натюрморт в серых тонах / Grisaia no Kajitsu [TV] [01-03 из 12] [Без хардсаба] [RUS(int), JAP+SUB] [2014 г., психологический, комедия, драма, романтика, HDTVRip] [720p] Galfimbul 950202981906 MB 0 0 1414350291

22:04

26-Окт-14

Аниме | HD Rips ·· Натюрморт в серых тонах / Grisaia no Kajitsu (Танака Мотоки) [TV] [1 из 12] [Без хардсаба] [JAP+SUB] [2014 г., приключения, WEBRip] [720p] Galfimbul 338549893323 MB 0 0 1412616696

20:31

6-Окт-14

Еще никто не оставлял запись к записи скачать торрент Натюрморт в серых тонах Grisaia no Kajitsu . Будь первым!

!Обратная связь