Скачать порно через торрент [TimTales.com] Logan Wolve and Max UnionPeer.org бесплатно онлайн HD качество

Скачать новое порно 2015, 2014 новинки через торрент UnionPeer.org

Порно торрент бесплатно ЮнионПир.орг

Если у вас наблюдаются проблемы со скриншотами, переходом по ссылками, скачиванием торрентов - проблемы в блокировщике рекламы AdBlock. #хорошегоДня!


Статистика раздачи
Размер:  138 MB   |    Зарегистрирован:  2 года 2 месяца   |    .torrent скачан:  21 раз   |   
Раздают:  1  
   
Загрузка...
 
Автор Сообщение

Galfimbul

avatar Galfimbul


[TimTales.com] Logan Wolve and Max

Год производства: 2009 г.
Страна: Germany
Жанр: oral, anal, hardcore, big cock, safesex, interracial
Продолжительность: 00:11:03

Описание: Hurts sooo good! That´s what max might have thought when Logan Wolve pushed him to his very limits with his big black cock.
You can tell, when you see the clip, that Max was really suffering under the heavy pounding of hardfucker Logan...but he really loved it. Wouldn´t we all?

Качество видео: SiteRip
Формат видео: WMV
Видео кодек: Windows Media
Аудио кодек: WMA
Видео: Windows Media Video 9 960x540 25.00fps 1600kbps
Аудио: Windows Media Audio 48000Hz stereo 128kbps
Общее
Полное имя : TimTales - Logan Wolve And Max.wmv
Формат : Windows Media
Размер файла : 138 Мбайт
Продолжительность : 11 м.
Режим общего битрейта : Переменный
Общий поток : 1742 Кбит/сек
Максимальный общий битрейт : 2220 Кбит/сек
Дата кодирования : UTC 2009-02-09 21:10:44.260

Видео
Идентификатор : 2
Формат : VC-1
Профиль формата : MP@HL
Идентификатор кодека : WMV3
Идентификатор кодека/Информация : Windows Media Video 9
Идентификатор кодека/Подсказка : WMV3
Описание кодека : Windows Media Video 9
Продолжительность : 11 м.
Вид битрейта : Переменный
Битрейт : 1601 Кбит/сек
Ширина : 960 пикселей
Высота : 540 пикселей
Соотношение сторон : 16:9
Частота кадров : 25,000 кадров/сек
Битовая глубина : 8 бит
Тип развёртки : Прогрессивная
Метод сжатия : С потерями
Бит/(Пиксели*Кадры) : 0.124
Размер потока : 127 Мбайт (92%)
Язык : German

Аудио
Идентификатор : 1
Формат : WMA
Версия формата : Version 2
Идентификатор кодека : 161
Идентификатор кодека/Информация : Windows Media Audio
Описание кодека : Windows Media Audio 9.2 - 128 kbps, 48 kHz, stereo (A/V) 1-pass CBR
Продолжительность : 11 м.
Вид битрейта : Постоянный
Битрейт : 128 Кбит/сек
Каналы : 2 канала
Частота : 48,0 КГц
Битовая глубина : 16 бит
Размер потока : 10,1 Мбайт (7%)
Язык : German


Трекер:  [ 11-Сен-2015 09:30 ]

  

Скачать .torrent

Размер .torrent файла 11 KB


Размер: 138 MB
Хэш (hash) релиза: 40b4a0100d97cfcc05678370d26cc79480320708

Еще никто не оставлял запись к записи скачать торрент [TimTales.com] Logan Wolve and Max . Будь первым!

!Обратная связь