Скачать через торрент музыку Моя ужасная няня Nanny McPhee бесплатно без регистрации torrent

Если у вас наблюдаются проблемы со скриншотами, переходом по ссылками, скачиванием торрентов - проблемы в блокировщике рекламы AdBlock. #хорошегоДня!


Статистика раздачи
Размер:  275 MB   |    Зарегистрирован:  2 года   |    .torrent скачан:  7 раз   |   
Раздают:  1  
   
Загрузка...
 
Автор Сообщение

Galfimbul

avatar Galfimbul


Моя ужасная няня / Nanny McPhee
Жанр: Score
Композитор: Patrick Doyle
Год выпуска диска: 2006
Год выпуска фильма: 2005
Производитель диска: P&O, Germany
Издатель (лейбл): Varèse Sarabande
Номер по каталогу: VSD (CVS) 6690
Аудиокодек: FLAC (*.flac)
Тип рипа: tracks+.cue
Битрейт аудио: lossless
Продолжительность: 00:53:34
Источник: собственный рип
Наличие сканов в содержимом раздачи: да, 300dpi
Ссылки: Кинопоиск | IMDB | Wikipedia | SoundtrackCollector
MP3: [url=...5071864](Score) Моя ужасная няня / Nanny McPhee (by Patrick Doyle) - 2006 (2005), MP3 (tracks) 320 kbps[/url]
Продолжение: [url=...5071893](Score) Моя ужасная няня 2 / Nanny McPhee & The Big Bang / Nanny McPhee Returns (by James Newton Howard) - 2010, FLAC (tracks+.cue), lossless[/url]
Patrick Doyle на трекере: [url=...786&nm=Patrick+Doyle]lossless[/url] | [url=...785&nm=Patrick+Doyle]lossy[/url]
01. They've Eaten The Baby [0:02:42.03]
02. No More Nannies [0:01:24.42]
03. Secret Toast And Jam [0:02:30.25]
04. A Clockwork Mouse [0:01:03.72]
05. The Pink Chair [0:01:00.31]
06. I Did Knock [0:06:02.16]
07. Goodnight, Children [0:04:25.42]
08. Measle Medicine [0:01:31.16]
09. Soup Du Jour [0:01:11.64]
10. I Smell Damp [0:01:40.53]
11. Barnyard Fashion [0:01:37.32]
12. Lord Of The Donkeys [0:00:39.45]
13. The Girl In The Carriage [0:03:20.24]
14. Kites In The Sky [0:02:26.41]
15. The Room At The Top Of The Stairs [0:01:43.73]
16. Toad In The Teapot [0:03:39.70]
17. Our Last Chance [0:02:17.54]
18. Mrs. Brown's Lullaby [0:01:20.51]
19. The Lady In Blue [0:02:04.27]
20. Bees And Cakes [0:03:45.71]
21. Snow In August [0:07:03.51]
Exact Audio Copy V1.1 from 23. June 2015

EAC extraction logfile from 2. September 2015, 15:02

Patrick Doyle / Nanny McPhee

Used drive : PLEXTOR CD-R PX-230A Adapter: 1 ID: 0

Read mode : SecureUtilize accurate stream : YesDefeat audio cache : YesMake use of C2 pointers : No

Read offset correction : 738Overread into Lead-In and Lead-Out : NoFill up missing offset samples with silence : YesDelete leading and trailing silent blocks : NoNull samples used in CRC calculations : YesUsed interface : Native Win32 interface for Win NT & 2000Gap handling : Appended to previous track

Used output format : User Defined EncoderSelected bitrate : 1024 kBit/sQuality : HighAdd ID3 tag : NoCommand line compressor : C:\Program Files\Exact Audio Copy\Flac\flac.exeAdditional command line options : -6 -V -T "ARTIST=%artist%" -T "TITLE=%title%" -T "ALBUM=%albumtitle%" -T "DATE=%year%"-T "TRACKNUMBER=%tracknr%" -T "GENRE=%genre%" -T "COMMENT=%comment%" -T "ALBUMARTIST=%albuminterpret%" -T "COMPOSER=%composer%"-T "DISCNUMBER=%cdnumber%" -T "TOTALDISCS=%totalcds%" -T "TOTALTRACKS=%numtracks%" %source% -o %dest%

TOC of the extracted CD

Track | Start | Length | Start sector | End sector --------------------------------------------------------- 1 | 0:00.00 | 2:42.03 | 0 | 12152 2 | 2:42.03 | 1:24.42 | 12153 | 18494 3 | 4:06.45 | 2:30.25 | 18495 | 29769 4 | 6:36.70 | 1:03.72 | 29770 | 34566 5 | 7:40.67 | 1:00.31 | 34567 | 39097 6 | 8:41.23 | 6:02.16 | 39098 | 66263 7 | 14:43.39 | 4:25.42 | 66264 | 86180 8 | 19:09.06 | 1:31.16 | 86181 | 93021 9 | 20:40.22 | 1:11.64 | 93022 | 98410 10 | 21:52.11 | 1:40.53 | 98411 | 105963 11 | 23:32.64 | 1:37.32 | 105964 | 113270 12 | 25:10.21 | 0:39.45 | 113271 | 116240 13 | 25:49.66 | 3:20.24 | 116241 | 131264 14 | 29:10.15 | 2:26.41 | 131265 | 142255 15 | 31:36.56 | 1:43.73 | 142256 | 150053 16 | 33:20.54 | 3:39.70 | 150054 | 166548 17 | 37:00.49 | 2:17.54 | 166549 | 176877 18 | 39:18.28 | 1:20.51 | 176878 | 182928 19 | 40:39.04 | 2:04.27 | 182929 | 192255 20 | 42:43.31 | 3:45.71 | 192256 | 209201 21 | 46:29.27 | 7:03.51 | 209202 | 240977

Track 1

Filename C:\Music\01 - They've Eaten The Baby.wav

Pre-gap length 0:00:02.00

Peak level 97.5 % Extraction speed 3.2 X Track quality 100.0 % Test CRC B048620E Copy CRC B048620E Accurately ripped (confidence 2) [9576F89A] (AR v2) Copy OK

Track 2

Filename C:\Music\02 - No More Nannies.wav

Pre-gap length 0:00:01.46

Peak level 92.4 % Extraction speed 3.5 X Track quality 100.0 % Test CRC 5F2213B3 Copy CRC 5F2213B3 Accurately ripped (confidence 2) [C2CF0CDB] (AR v2) Copy OK

Track 3

Filename C:\Music\03 - Secret Toast And Jam.wav

Pre-gap length 0:00:01.49

Peak level 92.1 % Extraction speed 3.7 X Track quality 100.0 % Test CRC FF20B78F Copy CRC FF20B78F Accurately ripped (confidence 2) [60FDC1CE] (AR v2) Copy OK

Track 4

Filename C:\Music\04 - A Clockwork Mouse.wav

Pre-gap length 0:00:02.19

Peak level 93.8 % Extraction speed 3.0 X Track quality 100.0 % Test CRC 4D0475CC Copy CRC 4D0475CC Accurately ripped (confidence 2) [FB753564] (AR v2) Copy OK

Track 5

Filename C:\Music\05 - The Pink Chair.wav

Pre-gap length 0:00:02.32

Peak level 36.6 % Extraction speed 2.4 X Track quality 99.8 % Test CRC 11D4369E Copy CRC 11D4369E Accurately ripped (confidence 2) [BEBCFC68] (AR v2) Copy OK

Track 6

Filename C:\Music\06 - I Did Knock.wav

Pre-gap length 0:00:00.43

Peak level 94.6 % Extraction speed 3.4 X Track quality 99.9 % Test CRC 7A393B56 Copy CRC 7A393B56 Accurately ripped (confidence 2) [F6455D19] (AR v2) Copy OK

Track 7

Filename C:\Music\07 - Goodnight, Children.wav

Pre-gap length 0:00:02.19

Peak level 87.6 % Extraction speed 4.0 X Track quality 100.0 % Test CRC C3503558 Copy CRC C3503558 Accurately ripped (confidence 2) [F47C140D] (AR v2) Copy OK

Track 8

Filename C:\Music\08 - Measle Medicine.wav

Pre-gap length 0:00:02.55

Peak level 96.9 % Extraction speed 3.1 X Track quality 100.0 % Test CRC 6CDB2452 Copy CRC 6CDB2452 Accurately ripped (confidence 2) [7916C7B8] (AR v2) Copy OK

Track 9

Filename C:\Music\09 - Soup Du Jour.wav

Pre-gap length 0:00:02.38

Peak level 93.6 % Extraction speed 3.2 X Track quality 100.0 % Test CRC 4FA9D783 Copy CRC 4FA9D783 Accurately ripped (confidence 2) [B488F3A3] (AR v2) Copy OK

Track 10

Filename C:\Music\10 - I Smell Damp.wav

Pre-gap length 0:00:01.44

Peak level 94.0 % Extraction speed 3.3 X Track quality 100.0 % Test CRC 21D89C2E Copy CRC 21D89C2E Accurately ripped (confidence 2) [13F77CB0] (AR v2) Copy OK

Track 11

Filename C:\Music\11 - Barnyard Fashion.wav

Pre-gap length 0:00:01.39

Peak level 92.1 % Extraction speed 3.0 X Track quality 100.0 % Test CRC 8F4B6DEC Copy CRC 8F4B6DEC Accurately ripped (confidence 2) [FA7BC4CA] (AR v2) Copy OK

Track 12

Filename C:\Music\12 - Lord Of The Donkeys.wav

Pre-gap length 0:00:03.51

Peak level 72.3 % Extraction speed 2.2 X Track quality 100.0 % Test CRC 22A474AD Copy CRC 22A474AD Accurately ripped (confidence 2) [B303EAC8] (AR v2) Copy OK

Track 13

Filename C:\Music\13 - The Girl In The Carriage.wav

Pre-gap length 0:00:02.30

Peak level 58.1 % Extraction speed 3.8 X Track quality 100.0 % Test CRC 009FEAEE Copy CRC 009FEAEE Accurately ripped (confidence 2) [8A6CC39D] (AR v2) Copy OK

Track 14

Filename C:\Music\14 - Kites In The Sky.wav

Pre-gap length 0:00:02.47

Peak level 36.8 % Extraction speed 3.4 X Track quality 100.0 % Test CRC 0BE93B79 Copy CRC 0BE93B79 Accurately ripped (confidence 2) [B81B81B6] (AR v2) Copy OK

Track 15

Filename C:\Music\15 - The Room At The Top Of The Stairs.wav

Pre-gap length 0:00:00.72

Peak level 60.6 % Extraction speed 3.3 X Track quality 100.0 % Test CRC E0B631B6 Copy CRC E0B631B6 Accurately ripped (confidence 2) [06A7FCDC] (AR v2) Copy OK

Track 16

Filename C:\Music\16 - Toad In The Teapot.wav

Pre-gap length 0:00:00.66

Peak level 94.1 % Extraction speed 3.5 X Track quality 100.0 % Test CRC 0E3A69BC Copy CRC 0E3A69BC Accurately ripped (confidence 2) [6588FF1F] (AR v2) Copy OK

Track 17

Filename C:\Music\17 - Our Last Chance.wav

Pre-gap length 0:00:01.05

Peak level 56.0 % Extraction speed 3.7 X Track quality 100.0 % Test CRC F4B7EA1E Copy CRC F4B7EA1E Accurately ripped (confidence 2) [B06FDCD2] (AR v2) Copy OK

Track 18

Filename C:\Music\18 - Mrs. Brown's Lullaby.wav

Pre-gap length 0:00:03.28

Peak level 53.0 % Extraction speed 3.0 X Track quality 99.8 % Test CRC 33E42C60 Copy CRC 33E42C60 Accurately ripped (confidence 2) [04C9DCD4] (AR v2) Copy OK

Track 19

Filename C:\Music\19 - The Lady In Blue.wav

Pre-gap length 0:00:01.34

Peak level 77.9 % Extraction speed 3.1 X Track quality 100.0 % Test CRC 89FF5C03 Copy CRC 89FF5C03 Accurately ripped (confidence 2) [A391D3FA] (AR v2) Copy OK

Track 20

Filename C:\Music\20 - Bees And Cakes.wav

Pre-gap length 0:00:02.12

Peak level 97.7 % Extraction speed 3.6 X Track quality 100.0 % Test CRC 5D9E764E Copy CRC 5D9E764E Accurately ripped (confidence 2) [886B16C3] (AR v2) Copy OK

Track 21

Filename C:\Music\21 - Snow In August.wav

Pre-gap length 0:00:03.04

Peak level 93.7 % Extraction speed 3.6 X Track quality 99.9 % Test CRC E54E8AA3 Copy CRC E54E8AA3 Accurately ripped (confidence 2) [167B7A8D] (AR v2) Copy OK

All tracks accurately ripped

No errors occurred

End of status report

---- CUETools DB Plugin V2.1.6

[CTDB TOCID: yiyj6qe.eDdwKmJnuKgaEMcnmuI-] foundSubmit result: yiyj6qe.eDdwKmJnuKgaEMcnmuI- has been confirmedTrack | CTDB Status 1 | (3/3) Accurately ripped 2 | (3/3) Accurately ripped 3 | (3/3) Accurately ripped 4 | (3/3) Accurately ripped 5 | (3/3) Accurately ripped 6 | (3/3) Accurately ripped 7 | (3/3) Accurately ripped 8 | (3/3) Accurately ripped 9 | (3/3) Accurately ripped 10 | (3/3) Accurately ripped 11 | (3/3) Accurately ripped 12 | (3/3) Accurately ripped 13 | (3/3) Accurately ripped 14 | (3/3) Accurately ripped 15 | (3/3) Accurately ripped 16 | (3/3) Accurately ripped 17 | (3/3) Accurately ripped 18 | (3/3) Accurately ripped 19 | (3/3) Accurately ripped 20 | (3/3) Accurately ripped 21 | (3/3) Accurately ripped

==== Log checksum B1F8E2481DD664B21B0B6CBFA19FC16299BC950056F92A85F8698E3AA4CEAAFF ====
REM GENRE SoundtrackREM DATE 2005REM DISCID 040C8D15REM COMMENT "ExactAudioCopy v1.1"PERFORMER "Patrick Doyle"TITLE "Nanny McPhee"FILE "01 - They've Eaten The Baby.wav" WAVE TRACK 01 AUDIO TITLE "They've Eaten The Baby" PERFORMER "Patrick Doyle" INDEX 01 00:00:00 TRACK 02 AUDIO TITLE "No More Nannies" PERFORMER "Patrick Doyle" INDEX 00 02:40:32FILE "02 - No More Nannies.wav" WAVE INDEX 01 00:00:00 TRACK 03 AUDIO TITLE "Secret Toast And Jam" PERFORMER "Patrick Doyle" INDEX 00 01:22:68FILE "03 - Secret Toast And Jam.wav" WAVE INDEX 01 00:00:00 TRACK 04 AUDIO TITLE "A Clockwork Mouse" PERFORMER "Patrick Doyle" INDEX 00 02:28:06FILE "04 - A Clockwork Mouse.wav" WAVE INDEX 01 00:00:00 TRACK 05 AUDIO TITLE "The Pink Chair" PERFORMER "Patrick Doyle" INDEX 00 01:01:40FILE "05 - The Pink Chair.wav" WAVE INDEX 01 00:00:00 TRACK 06 AUDIO TITLE "I Did Knock" PERFORMER "Patrick Doyle" INDEX 00 00:59:63FILE "06 - I Did Knock.wav" WAVE INDEX 01 00:00:00 TRACK 07 AUDIO TITLE "Goodnight, Children" PERFORMER "Patrick Doyle" INDEX 00 05:59:72FILE "07 - Goodnight, Children.wav" WAVE INDEX 01 00:00:00 TRACK 08 AUDIO TITLE "Measle Medicine" PERFORMER "Patrick Doyle" INDEX 00 04:22:62FILE "08 - Measle Medicine.wav" WAVE INDEX 01 00:00:00 TRACK 09 AUDIO TITLE "Soup Du Jour" PERFORMER "Patrick Doyle" INDEX 00 01:28:53FILE "09 - Soup Du Jour.wav" WAVE INDEX 01 00:00:00 TRACK 10 AUDIO TITLE "I Smell Damp" PERFORMER "Patrick Doyle" INDEX 00 01:10:20FILE "10 - I Smell Damp.wav" WAVE INDEX 01 00:00:00 TRACK 11 AUDIO TITLE "Barnyard Fashion" PERFORMER "Patrick Doyle" INDEX 00 01:39:14FILE "11 - Barnyard Fashion.wav" WAVE INDEX 01 00:00:00 TRACK 12 AUDIO TITLE "Lord Of The Donkeys" PERFORMER "Patrick Doyle" INDEX 00 01:33:56FILE "12 - Lord Of The Donkeys.wav" WAVE INDEX 01 00:00:00 TRACK 13 AUDIO TITLE "The Girl In The Carriage" PERFORMER "Patrick Doyle" INDEX 00 00:37:15FILE "13 - The Girl In The Carriage.wav" WAVE INDEX 01 00:00:00 TRACK 14 AUDIO TITLE "Kites In The Sky" PERFORMER "Patrick Doyle" INDEX 00 03:17:52FILE "14 - Kites In The Sky.wav" WAVE INDEX 01 00:00:00 TRACK 15 AUDIO TITLE "The Room At The Top Of The Stairs" PERFORMER "Patrick Doyle" INDEX 00 02:25:44FILE "15 - The Room At The Top Of The Stairs.wav" WAVE INDEX 01 00:00:00 TRACK 16 AUDIO TITLE "Toad In The Teapot" PERFORMER "Patrick Doyle" INDEX 00 01:43:07FILE "16 - Toad In The Teapot.wav" WAVE INDEX 01 00:00:00 TRACK 17 AUDIO TITLE "Our Last Chance" PERFORMER "Patrick Doyle" INDEX 00 03:38:65FILE "17 - Our Last Chance.wav" WAVE INDEX 01 00:00:00 TRACK 18 AUDIO TITLE "Mrs. Brown's Lullaby" PERFORMER "Patrick Doyle" INDEX 00 02:14:26FILE "18 - Mrs. Brown's Lullaby.wav" WAVE INDEX 01 00:00:00 TRACK 19 AUDIO TITLE "The Lady In Blue" PERFORMER "Patrick Doyle" INDEX 00 01:19:17FILE "19 - The Lady In Blue.wav" WAVE INDEX 01 00:00:00 TRACK 20 AUDIO TITLE "Bees And Cakes" PERFORMER "Patrick Doyle" INDEX 00 02:02:15FILE "20 - Bees And Cakes.wav" WAVE INDEX 01 00:00:00 TRACK 21 AUDIO TITLE "Snow In August" PERFORMER "Patrick Doyle" INDEX 00 03:42:67FILE "21 - Snow In August.wav" WAVE INDEX 01 00:00:00


Трекер:  [ 10-Сен-2015 22:30 ]

  

Скачать .torrent

Размер .torrent файла 23 KB


Размер: 275 MB
Хэш (hash) релиза: 6232aea79bcd05f27bee92982344032a6b262311

Торренты, похожие на Моя ужасная няня Nanny McPhee скачать торрент

Форум Название Автор Размер S L Добавлен
Саундтреки к фильмам и мультфильмам (mp3) ·· (Score) Моя ужасная няня / Nanny McPhee (by Patrick Doyle) - 2006 (2005), MP3 (tracks) 320 kbps Galfimbul 151868090145 MB 0 0 1441921363

00:42

11-Сен-15

Саундтреки к фильмам и мультфильмам (lossless) ·· (Score) Моя ужасная няня 2 / Nanny McPhee & The Big Bang / Nanny McPhee Returns (by James Newton Howard) - 2010, FLAC (tracks+.cue), lossless Galfimbul 378745026361 MB 0 0 1441921512

00:45

11-Сен-15

Еще никто не оставлял запись к записи скачать торрент Моя ужасная няня Nanny McPhee . Будь первым!

!Обратная связь