Скачать через торрент музыку Евгений Крылатов - Коллекция CD-сборников бесплатно без регистрации torrent

Если у вас наблюдаются проблемы со скриншотами, переходом по ссылками, скачиванием торрентов - проблемы в блокировщике рекламы AdBlock. #хорошегоДня!


Статистика раздачи
Размер:  3.17 GB   |    Зарегистрирован:  2 года   |    .torrent скачан:  83 раза   |   
Раздают:  1  
   
Загрузка...
 
Автор Сообщение

Galfimbul

avatar Galfimbul



Евгений Крылатов
Коллекция CD-сборников

Жанр: Score / Soundtrack | Дата выпуска: 1996-2010
Аудиокодек: FLAC | Тип рипа: image+.cue | Битрейт аудио: lossless
Общая продолжительность: 8:36:35
Источник: Личная коллекция indy-73

Евгений Крылатов • Люблю тебя
01. Воспоминаниеиз к/ф «О любви» [ЭСО ЦТиВР п/у Ю. Силантьева]
02. Люблю тебяиз к/ф «Не ходите, девки, замуж» [Валерий Леонтьев] (ст. Р. Рождественский)
03. Прикосновениеиз к/ф «Цветы для Оли» [Сергей Захаров] (ст. И. Резник)
04. Прощайиз к/ф «С любимыми не расставайтесь» [Александр Градский] (ст. А. Градский)
05. Песня о волшебной розеиз к/ф «Не покидай» [Анатолий Тукиш] (ст. Л. Дербенев)
06. Лесной оленьиз к/ф «Ох, уж эта Настя» [Аида Ведищева] (ст. Ю. Энтин)
07. Прекрасное далекоиз к/ф «Гостья из будущего» [трио «Меридиан»] (ст. Ю. Энтин)
08. Песенка о шпагеиз к/ф «Достояние республики» [Андрей Миронов] (ст. Ю. Энтин)
09. Романс Маркизаиз к/ф «Достояние республики» [Андрей Миронов] (ст. Б. Ахмадуллина)
10. Первое свиданиеиз к/ф «Смятение чувств» [Оркестр Госкино СССР]
11. Три белых коняиз к/ф «Чародеи» [Сергей Захаров] (ст. Л. Дербенев)
12. Сережка ольховаяиз т/ф «И это все о нем» [Иосиф Кобзон] (ст. Е. Евтушенко)
13. Песня цыганкииз к/ф «Вкус халвы» [Элеонора Иванова] (ст. Ю. Энтин)
14. Добрая феяиз к/ф «Серебряное ревю» [Оркестр Госкино СССР]
15. Загадка женщиныиз к/ф «Чародеи» [Ирина Отиева] (ст. Л. Дербенев)
16. Подойду я к зеркалуиз к/ф «Чародеи» [Ирина Отиева] (ст. Л. Дербенев)
17. Снежинкаиз к/ф «Чародеи» [Ольга Рождественская и ВИА «Добры молодцы»] (ст. Л. Дербенев)
18. Представь себеиз к/ф «Чародеи» [Александр Абдулов] (ст. Л. Дербенев)
19. Скоростное шоссеиз к/ф «Мой избранник» [Елена Камбурова] (ст. Л. Дербенев)
20. Песня о родном краеиз к/ф «Умный, честный, неженатый» [Ирина Отиева] (ст. Л. Дербенев)
21. Прощание с Джейраниз к/ф «Первый мост» [Оркестр Кинематографии]
Exact Audio Copy V1.0 beta 6 from 9. April 2015

EAC extraction logfile from 26. August 2015, 20:43

Various / Люблю тебя

Used drive : ATAPI iHAS124 B Adapter: 1 ID: 1

Read mode : SecureUtilize accurate stream : YesDefeat audio cache : YesMake use of C2 pointers : No

Read offset correction : 6Overread into Lead-In and Lead-Out : NoFill up missing offset samples with silence : YesDelete leading and trailing silent blocks : NoNull samples used in CRC calculations : YesUsed interface : Native Win32 interface for Win NT & 2000

Used output format : User Defined EncoderSelected bitrate : 1024 kBit/sQuality : HighAdd ID3 tag : NoCommand line compressor : C:\Program Files (x86)\Exact Audio Copy\Flac\flac.exeAdditional command line options : -T "artist=%artist%" -T "title=%title%" -T "album=%albumtitle%" -T "date=%year%" -T "tracknumber=%tracknr%" -T "genre=%genre%" -5 %source%

TOC of the extracted CD

Track | Start | Length | Start sector | End sector --------------------------------------------------------- 1 | 0:00.00 | 4:53.55 | 0 | 22029 2 | 4:53.55 | 5:09.65 | 22030 | 45269 3 | 10:03.45 | 4:02.67 | 45270 | 63486 4 | 14:06.37 | 4:07.13 | 63487 | 82024 5 | 18:13.50 | 3:08.20 | 82025 | 96144 6 | 21:21.70 | 2:54.37 | 96145 | 109231 7 | 24:16.32 | 4:00.48 | 109232 | 127279 8 | 28:17.05 | 2:47.00 | 127280 | 139804 9 | 31:04.05 | 3:24.00 | 139805 | 155104 10 | 34:28.05 | 2:46.67 | 155105 | 167621 11 | 37:14.72 | 3:11.58 | 167622 | 182004 12 | 40:26.55 | 2:57.02 | 182005 | 195281 13 | 43:23.57 | 3:18.00 | 195282 | 210131 14 | 46:41.57 | 1:57.33 | 210132 | 218939 15 | 48:39.15 | 2:55.70 | 218940 | 232134 16 | 51:35.10 | 2:36.70 | 232135 | 243904 17 | 54:12.05 | 2:44.25 | 243905 | 256229 18 | 56:56.30 | 2:38.47 | 256230 | 268126 19 | 59:35.02 | 2:43.08 | 268127 | 280359 20 | 62:18.10 | 2:51.45 | 280360 | 293229 21 | 65:09.55 | 3:35.55 | 293230 | 309409

Range status and errors

Selected range

Filename E:\Temp\FLAC\Various - Люблю тебя.wav

Peak level 97.3 % Extraction speed 6.5 X Range quality 100.0 % Test CRC EFF155F4 Copy CRC EFF155F4 Copy OK

No errors occurred

AccurateRip summary

Track 1 not present in databaseTrack 2 not present in databaseTrack 3 not present in databaseTrack 4 not present in databaseTrack 5 not present in databaseTrack 6 not present in databaseTrack 7 not present in databaseTrack 8 not present in databaseTrack 9 not present in databaseTrack 10 not present in databaseTrack 11 not present in databaseTrack 12 not present in databaseTrack 13 not present in databaseTrack 14 not present in databaseTrack 15 not present in databaseTrack 16 not present in databaseTrack 17 not present in databaseTrack 18 not present in databaseTrack 19 not present in databaseTrack 20 not present in databaseTrack 21 not present in database

None of the tracks are present in the AccurateRip database

End of status report

---- CUETools DB Plugin V2.1.6

[CTDB TOCID: r9ZmivKhVZRAuC2Dhc_OzjNR5sM-] disk not present in databaseSubmit result: r9ZmivKhVZRAuC2Dhc_OzjNR5sM- has been uploaded

==== Log checksum 73C4B74EEF0A3EC9A725AE4E6B57307F61EAEC5A92B5403E2479E069936C6F86 ====

Евгений Крылатов • Жизнь прекрасна!
из к/ф «Русалочка»
01. Тема Русалочки
02. Песня моряков
03. Сирены
04. Подводное царство
05. Песня Русалочки
06. Утро
07. Песня ведьмы
08. Танец Русалочки
09. Песня Сульпитиуса

из к/ф «Циркачонок»
10. Титры
11. Песня Танти
12. Привал
13. Песня Марии-Луизы
14. Тризна
15. Фургоны
16. Казнь
17. Цветок
18. Воспоминание
19. Смерть Танти
20. Галоп Алеши

Оркестр Госкино СССР, дир. Д. Штильман
Стихи: Б. Ахмадуллина (2, 5, 7, 11, 13, 19) и Ю. Энтин (9)
Поют: Валентин Никулин, Галина Волчек, Татьяна Дасковская

Exact Audio Copy V1.0 beta 6 from 9. April 2015

EAC extraction logfile from 28. August 2015, 21:10

Евгений Крылатов / Жизнь Прекрасна!

Used drive : ATAPI iHAS124 B Adapter: 1 ID: 1

Read mode : SecureUtilize accurate stream : YesDefeat audio cache : YesMake use of C2 pointers : No

Read offset correction : 6Overread into Lead-In and Lead-Out : NoFill up missing offset samples with silence : YesDelete leading and trailing silent blocks : NoNull samples used in CRC calculations : YesUsed interface : Native Win32 interface for Win NT & 2000

Used output format : User Defined EncoderSelected bitrate : 1024 kBit/sQuality : HighAdd ID3 tag : NoCommand line compressor : C:\Program Files (x86)\Exact Audio Copy\Flac\flac.exeAdditional command line options : -T "artist=%artist%" -T "title=%title%" -T "album=%albumtitle%" -T "date=%year%" -T "tracknumber=%tracknr%" -T "genre=%genre%" -5 %source%

TOC of the extracted CD

Track | Start | Length | Start sector | End sector --------------------------------------------------------- 1 | 0:00.00 | 1:15.20 | 0 | 5644 2 | 1:15.20 | 2:06.65 | 5645 | 15159 3 | 3:22.10 | 1:13.21 | 15160 | 20655 4 | 4:35.31 | 3:07.74 | 20656 | 34754 5 | 7:43.30 | 1:43.53 | 34755 | 42532 6 | 9:27.08 | 3:04.34 | 42533 | 56366 7 | 12:31.42 | 1:45.47 | 56367 | 64288 8 | 14:17.14 | 2:02.07 | 64289 | 73445 9 | 16:19.21 | 3:21.71 | 73446 | 88591 10 | 19:41.17 | 1:54.27 | 88592 | 97168 11 | 21:35.44 | 2:03.29 | 97169 | 106422 12 | 23:38.73 | 2:52.29 | 106423 | 119351 13 | 26:31.27 | 3:35.65 | 119352 | 135541 14 | 30:07.17 | 1:28.28 | 135542 | 142169 15 | 31:35.45 | 0:52.72 | 142170 | 146141 16 | 32:28.42 | 1:20.27 | 146142 | 152168 17 | 33:48.69 | 0:53.10 | 152169 | 156153 18 | 34:42.04 | 2:20.56 | 156154 | 166709 19 | 37:02.60 | 1:27.74 | 166710 | 173308 20 | 38:30.59 | 2:18.64 | 173309 | 183722

Range status and errors

Selected range

Filename E:\Temp\FLAC\Евгений Крылатов - Жизнь Прекрасна!.wav

Peak level 96.6 % Extraction speed 5.4 X Range quality 100.0 % Test CRC BE96C07B Copy CRC BE96C07B Copy OK

No errors occurred

AccurateRip summary

Track 1 not present in databaseTrack 2 not present in databaseTrack 3 not present in databaseTrack 4 not present in databaseTrack 5 not present in databaseTrack 6 not present in databaseTrack 7 not present in databaseTrack 8 not present in databaseTrack 9 not present in databaseTrack 10 not present in databaseTrack 11 not present in databaseTrack 12 not present in databaseTrack 13 not present in databaseTrack 14 not present in databaseTrack 15 not present in databaseTrack 16 not present in databaseTrack 17 not present in databaseTrack 18 not present in databaseTrack 19 not present in databaseTrack 20 not present in database

None of the tracks are present in the AccurateRip database

End of status report

---- CUETools DB Plugin V2.1.6

[CTDB TOCID: TZGlhpOdAl9g5J9FiuLItEsajs0-] disk not present in databaseSubmit result: TZGlhpOdAl9g5J9FiuLItEsajs0- has been uploaded

==== Log checksum 2409CF8EB6C4F63D1DD91AC879617973DED4FF1F34501DD10CF5203906103B25 ====

Евгений Крылатов & Юрий Энтин • Лесной олень и другие
01. Лесной оленьиз к/ф «Ох, уж эта Настя» [Аида Ведищева]
02. Прекрасное далекоиз т/ф «Гостья из будущего» [Театр песни 'Талисман']
03. Песня о мимеиз к/ф «Чехарда» [Витас]
04. Подари мне этот мириз к/ф «Сверчок за очагом» [Кристина Аглинц]
05. Крылатые качелииз к/ф «Приключения Электроника» [БДХ, сол. Татьяна Мелёхина]
06. Мы - маленькие детииз к/ф «Приключения Электроника» [Елена Камбурова]
07. До чего дошел прогрессиз к/ф «Приключения Электроника» [Елена Камбурова]
08. Грустная песня Сыроежкинаиз к/ф «Приключения Электроника» [Елена Камбурова]
09. Песенка Уррииз к/ф «Приключения Электроника» [Николай Караченцов]
10. Песня Насреддинаиз к/ф «Вкус халвы» [Геннадий Белов]
11. Ах, увы-увы-увы, я утратил вкус халвыиз к/ф «Вкус халвы» [Армэн Джигарханян]
12. Едет, едетиз к/ф «Сверчок за очагом»
13. Кабы не было зимыиз м/ф «Зима в Простоквашино» [Валентина Толкунова]
14. Песенка Деда Морозаиз м/ф «Дед Мороз и лето» [Евгений Весник]
15. Песенка о летеиз м/ф «Дед Мороз и лето» [Детский хор «Спутник»]
16. Лягушачья ламбадаиз м/ф «Лягушка-путешественица» [До-ми-соль]
17. Лягушачья ламбадаиз к/ф «Чехарда» [Детская группа 'Мастерок']
18. Это знает всякийиз к/ф «Приключения Электроника» [Театр песни 'Талисман']
19. Песенка о шпагеиз к/ф «Достояние республики» [Андрей Миронов]
20. Песня Сульпитиусаиз к/ф «Русалочка» [Валентин Никулин]
21. Где музыка берет началоиз к/ф «Чехарда» [Оксана Григорян]
22. Песня цыганкииз к/ф «Вкус халвы» [Элеонора Иванова]
23. Будь со мной (Вера, Надежда, Любовь) [Людмила Татарова]
24. Колоколаиз к/ф «Приключения Электроника» [Юлия Началова]
Exact Audio Copy V1.0 beta 6 from 9. April 2015

EAC extraction logfile from 27. August 2015, 20:55

Various / Лесной олень и другие

Used drive : ATAPI iHAS124 B Adapter: 1 ID: 1

Read mode : SecureUtilize accurate stream : YesDefeat audio cache : YesMake use of C2 pointers : No

Read offset correction : 6Overread into Lead-In and Lead-Out : NoFill up missing offset samples with silence : YesDelete leading and trailing silent blocks : NoNull samples used in CRC calculations : YesUsed interface : Native Win32 interface for Win NT & 2000

Used output format : User Defined EncoderSelected bitrate : 1024 kBit/sQuality : HighAdd ID3 tag : NoCommand line compressor : C:\Program Files (x86)\Exact Audio Copy\Flac\flac.exeAdditional command line options : -T "artist=%artist%" -T "title=%title%" -T "album=%albumtitle%" -T "date=%year%" -T "tracknumber=%tracknr%" -T "genre=%genre%" -5 %source%

TOC of the extracted CD

Track | Start | Length | Start sector | End sector --------------------------------------------------------- 1 | 0:00.00 | 2:53.06 | 0 | 12980 2 | 2:53.06 | 3:38.39 | 12981 | 29369 3 | 6:31.45 | 3:16.47 | 29370 | 44116 4 | 9:48.17 | 2:31.03 | 44117 | 55444 5 | 12:19.20 | 3:14.35 | 55445 | 70029 6 | 15:33.55 | 1:58.31 | 70030 | 78910 7 | 17:32.11 | 1:23.22 | 78911 | 85157 8 | 18:55.33 | 1:35.47 | 85158 | 92329 9 | 20:31.05 | 1:46.35 | 92330 | 100314 10 | 22:17.40 | 2:32.35 | 100315 | 111749 11 | 24:50.00 | 2:41.21 | 111750 | 123845 12 | 27:31.21 | 2:43.45 | 123846 | 136115 13 | 30:14.66 | 2:01.53 | 136116 | 145243 14 | 32:16.44 | 1:50.51 | 145244 | 153544 15 | 34:07.20 | 1:27.28 | 153545 | 160097 16 | 35:34.48 | 1:49.42 | 160098 | 168314 17 | 37:24.15 | 1:53.46 | 168315 | 176835 18 | 39:17.61 | 2:15.65 | 176836 | 187025 19 | 41:33.51 | 2:46.59 | 187026 | 199534 20 | 44:20.35 | 2:34.09 | 199535 | 211093 21 | 46:54.44 | 3:58.36 | 211094 | 228979 22 | 50:53.05 | 3:16.55 | 228980 | 243734 23 | 54:09.60 | 3:49.61 | 243735 | 260970 24 | 57:59.46 | 2:52.21 | 260971 | 273891

Range status and errors

Selected range

Filename E:\Temp\FLAC\Various - Лесной олень и другие.wav

Peak level 100.0 % Extraction speed 6.0 X Range quality 100.0 % Test CRC 640D1421 Copy CRC 640D1421 Copy OK

No errors occurred

AccurateRip summary

Track 1 not present in databaseTrack 2 not present in databaseTrack 3 not present in databaseTrack 4 not present in databaseTrack 5 not present in databaseTrack 6 not present in databaseTrack 7 not present in databaseTrack 8 not present in databaseTrack 9 not present in databaseTrack 10 not present in databaseTrack 11 not present in databaseTrack 12 not present in databaseTrack 13 not present in databaseTrack 14 not present in databaseTrack 15 not present in databaseTrack 16 not present in databaseTrack 17 not present in databaseTrack 18 not present in databaseTrack 19 not present in databaseTrack 20 not present in databaseTrack 21 not present in databaseTrack 22 not present in databaseTrack 23 not present in databaseTrack 24 not present in database

None of the tracks are present in the AccurateRip database

End of status report

---- CUETools DB Plugin V2.1.6

[CTDB TOCID: fTguwdkcT3Y7iVRiWO6iFTIv.Uk-] foundSubmit result: fTguwdkcT3Y7iVRiWO6iFTIv.Uk- has been uploadedTrack | CTDB Status 1 | (1/1) Accurately ripped 2 | (1/1) Accurately ripped 3 | (1/1) Accurately ripped 4 | (1/1) Accurately ripped 5 | (1/1) Accurately ripped 6 | (1/1) Accurately ripped 7 | (1/1) Accurately ripped 8 | (1/1) Accurately ripped 9 | (1/1) Accurately ripped 10 | (1/1) Accurately ripped 11 | (1/1) Accurately ripped 12 | (1/1) Accurately ripped 13 | (1/1) Accurately ripped 14 | (1/1) Accurately ripped 15 | (1/1) Accurately ripped 16 | (1/1) Accurately ripped 17 | (1/1) Accurately ripped 18 | (1/1) Accurately ripped 19 | (1/1) Accurately ripped 20 | (1/1) Accurately ripped 21 | (1/1) Accurately ripped 22 | (1/1) Differs in 2352 samples @00:43:22-00:43:24 23 | (1/1) Accurately ripped 24 | (1/1) Differs in 2352 samples @00:17:65-00:17:67If you are sure that your rip contains errors, you can use CUETools to repair it.

==== Log checksum BD1FB78194EA3AEF52B80D4F05997979659F1979136655B13409E090E5DDAA36 ====

Евгений Крылатов • Пообещайте мне любовь...
01. Пообещайте мне любовь!из к/ф «Акванавты» [Татьяна Дасковская] (ст. И. Вознесенский)
02. Темаиз к/ф «Акванавты»
03. С любимыми не расставайтесьиз к/ф «С любимыми не расставайтесь»
04. Воспоминаниеиз к/ф «О любви»
05. Мой первый другиз к/ф «Мой первый друг»
06. Талисманиз к/ф «Талисман»
07. Песня цыганкииз к/ф «Вкус халвы» [Элеонора Иванова] (ст. Ю. Энтин)
08. Смятение чувствиз к/ф «Смятение чувств»
09. И тогда я сказал нетиз к/ф «И тогда я сказал нет»
10. Ищу человекаиз к/ф «Ищу человека»
11. Полетиз т/ф «Гостья из будущего»
12. Титрыиз к/ф «Кольца Альманзора»
13. Попуррииз к/ф «Ох, уж эта Настя»
14. Кружится, кружится...из к/ф «Трам-тарарам или Бухты-барахты» [Михаил Линк] (ст. А. Панкратов-Черный)
15. Попуррииз к/ф «Трам-тарарам или Бухты-барахты»
16. Добрая Феяиз к/ф «Серебряное ревю»
17. Диксилендиз к/ф «Серебряное ревю»
18. Песня Светыиз к/ф «Не ходите, девки, замуж» [Светлана Рябова] (ст. Л. Дербенев)
19. Денечки сентябряиз к/ф «Не ходите, девки, замуж» [вокальный ансамбль] (ст. Л. Дербенев)
20. Люблю тебяиз к/ф «Не ходите, девки, замуж» [Валерий Леонтьев] (ст. Р. Рождественский)
20. Ночьиз к/ф «Не ходите, девки, замуж»

Оркестр Госкино СССР, дир. Д. Штильман и Г. Гаранян

Exact Audio Copy V1.0 beta 6 from 9. April 2015

EAC extraction logfile from 29. August 2015, 13:20

Евгений Крылатов / Пообещайте мне любовь...

Used drive : ATAPI iHAS124 B Adapter: 1 ID: 1

Read mode : SecureUtilize accurate stream : YesDefeat audio cache : YesMake use of C2 pointers : No

Read offset correction : 6Overread into Lead-In and Lead-Out : NoFill up missing offset samples with silence : YesDelete leading and trailing silent blocks : NoNull samples used in CRC calculations : YesUsed interface : Native Win32 interface for Win NT & 2000

Used output format : User Defined EncoderSelected bitrate : 1024 kBit/sQuality : HighAdd ID3 tag : NoCommand line compressor : C:\Program Files (x86)\Exact Audio Copy\Flac\flac.exeAdditional command line options : -T "artist=%artist%" -T "title=%title%" -T "album=%albumtitle%" -T "date=%year%" -T "tracknumber=%tracknr%" -T "genre=%genre%" -5 %source%

TOC of the extracted CD

Track | Start | Length | Start sector | End sector --------------------------------------------------------- 1 | 0:00.00 | 2:51.04 | 0 | 12828 2 | 2:51.04 | 1:37.70 | 12829 | 20173 3 | 4:28.74 | 1:33.37 | 20174 | 27185 4 | 6:02.36 | 4:48.73 | 27186 | 48858 5 | 10:51.34 | 1:56.40 | 48859 | 57598 6 | 12:47.74 | 2:16.54 | 57599 | 67852 7 | 15:04.53 | 3:15.61 | 67853 | 82538 8 | 18:20.39 | 2:42.43 | 82539 | 94731 9 | 21:03.07 | 1:34.60 | 94732 | 101841 10 | 22:37.67 | 2:11.43 | 101842 | 111709 11 | 24:49.35 | 3:16.54 | 111710 | 126463 12 | 28:06.14 | 1:48.68 | 126464 | 134631 13 | 29:55.07 | 4:41.22 | 134632 | 155728 14 | 34:36.29 | 2:29.44 | 155729 | 166947 15 | 37:05.73 | 5:54.53 | 166948 | 193550 16 | 43:00.51 | 1:55.54 | 193551 | 202229 17 | 44:56.30 | 2:45.71 | 202230 | 214675 18 | 47:42.26 | 2:38.35 | 214676 | 226560 19 | 50:20.61 | 2:33.14 | 226561 | 238049 20 | 52:54.00 | 5:08.49 | 238050 | 261198 21 | 58:02.49 | 1:56.64 | 261199 | 269962

Range status and errors

Selected range

Filename E:\Temp\FLAC\Евгений Крылатов - Пообещайте мне любовь....wav

Peak level 98.8 % Extraction speed 5.9 X Range quality 99.9 % Test CRC FE268EDE Copy CRC FE268EDE Copy OK

No errors occurred

AccurateRip summary

Track 1 not present in databaseTrack 2 not present in databaseTrack 3 not present in databaseTrack 4 not present in databaseTrack 5 not present in databaseTrack 6 not present in databaseTrack 7 not present in databaseTrack 8 not present in databaseTrack 9 not present in databaseTrack 10 not present in databaseTrack 11 not present in databaseTrack 12 not present in databaseTrack 13 not present in databaseTrack 14 not present in databaseTrack 15 not present in databaseTrack 16 not present in databaseTrack 17 not present in databaseTrack 18 not present in databaseTrack 19 not present in databaseTrack 20 not present in databaseTrack 21 not present in database

None of the tracks are present in the AccurateRip database

End of status report

---- CUETools DB Plugin V2.1.6

[CTDB TOCID: G7DHwzfTn_lQxNEaHvVLsHq7VwE-] disk not present in databaseSubmit result: G7DHwzfTn_lQxNEaHvVLsHq7VwE- has been uploaded

==== Log checksum D56C90BE2EDFD1F3919B41A19C66B44563658FABB9F6B475A834CF42AC86017F ====

Евгений Крылатов • Приказано взять живым
01. Тропа Хо-ши-минаиз к/ф «Координаты смерти»
02. Прощание с кораблемиз к/ф «Координаты смерти»
03. Возвращениеиз к/ф «С любимыми не расставайтесь»
04. Финальная песняиз к/ф «Координаты смерти» [Лариса Долина] (ст. Э. Басс)
05. Конная атакаиз к/ф «Снежная крепость»
06. Темаиз к/ф «Приказано взять живым»
07. Песня морских пограничниковиз к/ф «Приказано взять живым» [Михаил Пуговкин и Вера Васильева] (ст. И. Шаферан)
08. Тема-2из к/ф «Приказано взять живым»
09. Тема-3из к/ф «Приказано взять живым»
10. Трюкииз т/ф «Риск - благородное дело»
11. Воспоминания о войнеиз к/ф «Я вас дождусь» [Вадим Лыньковский] (ст. М. Матусовский)
12. Мы стали небомиз к/ф «В небе - "ночные ведьмы"» [Елена Камбурова] (ст. Е. Евтушенко)
13. Увертюраиз к/ф «Достояние Республики»
14. От берега мечта моя отчалила...из к/ф «Егорка» [ВИА «Надежда»] (ст. М. Пляцковский)
15. Что может быть лучше Россиииз к/ф «Не ходите, девки, замуж» [вокальный ансамбль] (ст. Л. Дербенев)
16. Талисманиз к/ф «Конец Императора тайги»
17. Мой конь воронойиз к/ф «Конец Императора тайги» [Вадим Лыньковский] (ст. И. Вознесенкий)

Оркестр Госкино СССР, дир. Д. Штильман и С. Скрипка

Exact Audio Copy V1.0 beta 6 from 9. April 2015

EAC extraction logfile from 29. August 2015, 20:10

Евгений Крылатов / Приказано взять живым

Used drive : ATAPI iHAS124 B Adapter: 1 ID: 1

Read mode : SecureUtilize accurate stream : YesDefeat audio cache : YesMake use of C2 pointers : No

Read offset correction : 6Overread into Lead-In and Lead-Out : NoFill up missing offset samples with silence : YesDelete leading and trailing silent blocks : NoNull samples used in CRC calculations : YesUsed interface : Native Win32 interface for Win NT & 2000

Used output format : User Defined EncoderSelected bitrate : 1024 kBit/sQuality : HighAdd ID3 tag : NoCommand line compressor : C:\Program Files (x86)\Exact Audio Copy\Flac\flac.exeAdditional command line options : -T "artist=%artist%" -T "title=%title%" -T "album=%albumtitle%" -T "date=%year%" -T "tracknumber=%tracknr%" -T "genre=%genre%" -5 %source%

TOC of the extracted CD

Track | Start | Length | Start sector | End sector --------------------------------------------------------- 1 | 0:00.00 | 5:17.40 | 0 | 23814 2 | 5:17.40 | 2:02.40 | 23815 | 33004 3 | 7:20.05 | 2:27.56 | 33005 | 44085 4 | 9:47.61 | 4:58.42 | 44086 | 66477 5 | 14:46.28 | 2:11.16 | 66478 | 76318 6 | 16:57.44 | 1:51.19 | 76319 | 84662 7 | 18:48.63 | 2:21.12 | 84663 | 95249 8 | 21:10.00 | 1:28.33 | 95250 | 101882 9 | 22:38.33 | 3:10.63 | 101883 | 116195 10 | 25:49.21 | 2:37.14 | 116196 | 127984 11 | 28:26.35 | 2:26.56 | 127985 | 138990 12 | 30:53.16 | 2:39.62 | 138991 | 150977 13 | 33:33.03 | 2:25.51 | 150978 | 161903 14 | 35:58.54 | 2:52.60 | 161904 | 174863 15 | 38:51.39 | 2:50.13 | 174864 | 187626 16 | 41:41.52 | 1:49.01 | 187627 | 195802 17 | 43:30.53 | 5:09.60 | 195803 | 219037

Range status and errors

Selected range

Filename E:\Temp\FLAC\Евгений Крылатов - Приказано взять живым.wav

Peak level 98.8 % Extraction speed 5.7 X Range quality 100.0 % Test CRC BAA60F71 Copy CRC BAA60F71 Copy OK

No errors occurred

AccurateRip summary

Track 1 not present in databaseTrack 2 not present in databaseTrack 3 not present in databaseTrack 4 not present in databaseTrack 5 not present in databaseTrack 6 not present in databaseTrack 7 not present in databaseTrack 8 not present in databaseTrack 9 not present in databaseTrack 10 not present in databaseTrack 11 not present in databaseTrack 12 not present in databaseTrack 13 not present in databaseTrack 14 not present in databaseTrack 15 not present in databaseTrack 16 not present in databaseTrack 17 not present in database

None of the tracks are present in the AccurateRip database

End of status report

---- CUETools DB Plugin V2.1.6

[CTDB TOCID: _RTtFjcMi70abOgZOi10Vog2rRs-] disk not present in databaseSubmit result: _RTtFjcMi70abOgZOi10Vog2rRs- has been uploaded

==== Log checksum 329FE6EDF985C76A79FE4A8B5E2175C680D44078EF2B4E6B68442AEAA8EF0265 ====

Евгений Крылатов • Сережка ольховая
01. Воспоминаниеиз к/ф «О любви» [ЭСО ЦТиВР п/у Ю. Силантьева]
02. Что будет, то и будетиз к/ф «Достояние республики» [Андрей Миронов] (ст. Б. Ахмадуллина)
03. Представь себеиз к/ф «Чародеи» [Леонид Серебренников] (ст. Л. Дербенев)
04. Темаиз к/ф «Акванавты»
05. Люблю тебяиз к/ф «Не ходите, девки, замуж» [Валерий Леонтьев] (ст. Р. Рождественский)
06. Загадка женщиныиз к/ф «Чародеи» [Ирина Отиева] (ст. Л. Дербенев)
07. Что может быть лучше Россиииз к/ф «Не ходите, девки, замуж» [вок. анс.] (ст. Л. Дербенев)
08. Ну, чем мы не параиз к/ф «Умный, честный, неженатый» [Андрей Миронов] (ст. М. Пляцковский)
09. Снимается киноиз к/ф «Достояние республики»
10. Последние денечки сентябряиз к/ф «Не ходите, девки, замуж» [вокальный ансамбль] (ст. Л. Дербенев)
11. Песенка про ледиз к/ф «Серебряное ревю» [Михаил Пуговкин, Александр Ширвиндт, Нонна Терентьева] (ст. Л. Дербенев)
12. Стало сном далекимиз к/ф «Не ходите, девки, замуж» [Светлана Рябова] (ст. Л. Дербенев)
13. Караван циркачейиз к/ф «Русалочка»
14. Сонетиз к/ф «С любимыми не расставайтесь» [Александр Градский] (ст. А. Градский)
15. Прощание с любимымиз к/ф «С любимыми не расставайтесь»
16. Подойду я к зеркалуиз к/ф «Чародеи» [Ирина Отиева] (ст. Л. Дербенев)
17. Сережка ольховаяиз т/ф «И это все о нем» [Иосиф Кобзон] (ст. Е. Евтушенко)
18. Пообещайте мне любовь!из к/ф «Акванавты» [Татьяна Дасковская] (ст. И. Вознесенский)
19. Песенка о шпагеиз к/ф «Достояние республики» [Андрей Миронов] (ст. Ю. Энтин)
20. Песня о родном краеиз к/ф «Умный, честный, неженатый» [Ирина Отиева] (ст. Л. Дербенев)
21. Прощание с Петербургомиз к/ф «Достояние республики»

Оркестр Госкино СССР
Оркестр п/у Н. Шамшина
Exact Audio Copy V1.0 beta 6 from 9. April 2015

EAC extraction logfile from 30. August 2015, 15:27

Евгений Крылатов / Сережка ольховая

Used drive : ATAPI iHAS124 B Adapter: 1 ID: 1

Read mode : SecureUtilize accurate stream : YesDefeat audio cache : YesMake use of C2 pointers : No

Read offset correction : 6Overread into Lead-In and Lead-Out : NoFill up missing offset samples with silence : YesDelete leading and trailing silent blocks : NoNull samples used in CRC calculations : YesUsed interface : Native Win32 interface for Win NT & 2000

Used output format : User Defined EncoderSelected bitrate : 1024 kBit/sQuality : HighAdd ID3 tag : NoCommand line compressor : C:\Program Files (x86)\Exact Audio Copy\Flac\flac.exeAdditional command line options : -T "artist=%artist%" -T "title=%title%" -T "album=%albumtitle%" -T "date=%year%" -T "tracknumber=%tracknr%" -T "genre=%genre%" -5 %source%

TOC of the extracted CD

Track | Start | Length | Start sector | End sector --------------------------------------------------------- 1 | 0:00.00 | 4:50.35 | 0 | 21784 2 | 4:50.35 | 3:21.51 | 21785 | 36910 3 | 8:12.11 | 2:44.33 | 36911 | 49243 4 | 10:56.44 | 2:23.62 | 49244 | 60030 5 | 13:20.31 | 5:08.61 | 60031 | 83191 6 | 18:29.17 | 2:53.12 | 83192 | 96178 7 | 21:22.29 | 2:48.53 | 96179 | 108831 8 | 24:11.07 | 3:17.50 | 108832 | 123656 9 | 27:28.57 | 1:02.17 | 123657 | 128323 10 | 28:30.74 | 2:34.34 | 128324 | 139907 11 | 31:05.33 | 3:02.24 | 139908 | 153581 12 | 34:07.57 | 2:37.11 | 153582 | 165367 13 | 36:44.68 | 2:23.63 | 165368 | 176155 14 | 39:08.56 | 4:05.45 | 176156 | 194575 15 | 43:14.26 | 3:09.34 | 194576 | 208784 16 | 46:23.60 | 2:34.56 | 208785 | 220390 17 | 48:58.41 | 2:55.27 | 220391 | 233542 18 | 51:53.68 | 2:51.38 | 233543 | 246405 19 | 54:45.31 | 2:43.12 | 246406 | 258642 20 | 57:28.43 | 2:47.49 | 258643 | 271216

Range status and errors

Selected range

Filename E:\Temp\FLAC\Евгений Крылатов - Сережка ольховая.wav

Peak level 100.0 % Extraction speed 2.2 X Range quality 100.0 % Test CRC 87A6B0CD Copy CRC 87A6B0CD Copy OK

No errors occurred

AccurateRip summary

Track 1 not present in databaseTrack 2 not present in databaseTrack 3 not present in databaseTrack 4 not present in databaseTrack 5 not present in databaseTrack 6 not present in databaseTrack 7 not present in databaseTrack 8 not present in databaseTrack 9 not present in databaseTrack 10 not present in databaseTrack 11 not present in databaseTrack 12 not present in databaseTrack 13 not present in databaseTrack 14 not present in databaseTrack 15 not present in databaseTrack 16 not present in databaseTrack 17 not present in databaseTrack 18 not present in databaseTrack 19 not present in databaseTrack 20 not present in database

None of the tracks are present in the AccurateRip database

End of status report

---- CUETools DB Plugin V2.1.6

[CTDB TOCID: rDwykxED9ALgC95pNZy3ExTRvtY-] disk not present in databaseSubmit result: rDwykxED9ALgC95pNZy3ExTRvtY- has been uploaded

==== Log checksum 918A201B9D611DF0D1BFFFFFC162B69D54FC09D28F8139D150066EA3D44B2FC2 ====

Евгений Крылатов • Прекрасное далеко
01. Лесной оленьиз к/ф «Ох, уж эта Настя» [Людмила Сенчина] (ст. Ю. Энтин)
02. Песня о снежинкеиз к/ф «Чародеи» [Ольга Рождественская] (ст. Л. Дербенев)
03. Сверчок за очагом [инстр.] — из к/ф «Сверчок за очагом»
04. Путь к волшебникуиз к/ф «Кольца Альманзора» [вок. анс.] (ст. И. Козловский)
05. До чего дошел прогрессиз к/ф «Приключения Электроника» [Елена Камбурова] (ст. Ю. Энтин)
06. Талисманиз к/ф «Талисман»
07. Хоть глазочком заглянуть быиз к/ф «Лиловый шар» [Елена Камбурова] (ст. Ю. Энтин)
08. Появление Алисы [инстр.] — из т/ф «Гостья из будущего»
09. Прекрасное далекоиз т/ф «Гостья из будущего» [БДХ, сол. Ольга Королькова] (ст. Ю. Энтин)
10. Песня Сульпитиусаиз к/ф «Русалочка» [Валентин Никулин] (ст. Ю. Энтин)
11. Три белых коняиз к/ф «Чародеи» [Лариса Долина] (ст. Л. Дербенев)
12. Погоня [инстр.] — из т/ф «Гостья из будущего»
13. Песня отчаянных моряковиз к/ф «Русалочка» [Павел Бабаков и вок. анс.] (ст. Б. Ахмадуллина)
14. Песня Зензивераиз к/ф «Кольца Альманзора»
15. Мелодияиз к/ф «Ох, уж эта Настя»
16. Крылатые качелииз к/ф «Приключения Электроника» [БДХ, сол. Татьяна Мелёхина] (ст. Ю. Энтин)
17. Песня Русалочкииз к/ф «Русалочка» [Татьяна Дасковская] (ст. Б. Ахмадуллина)
18. Песня Ведьмыиз к/ф «Русалочка» [Галина Волчек] (ст. Б. Ахмадуллина)
19. Мелодияиз к/ф «Кольца Альманзора»
20. Песенка Уррииз к/ф «Приключения Электроника» [Николай Караченцов] (ст. Ю. Энтин)
21. Лесной олень [инстр.] — из к/ф «Ох, уж эта Настя»

Оркестр Госкино СССР
Оркестр п/у Н. Шамшина
Эстрадно-симфонический оркестр ЦТиВР, дир. А. Михайлов
Exact Audio Copy V1.0 beta 6 from 9. April 2015

EAC extraction logfile from 30. August 2015, 18:52

Евгений Крылатов / Прекрасное далеко

Used drive : ATAPI iHAS124 B Adapter: 1 ID: 1

Read mode : SecureUtilize accurate stream : YesDefeat audio cache : YesMake use of C2 pointers : No

Read offset correction : 6Overread into Lead-In and Lead-Out : NoFill up missing offset samples with silence : YesDelete leading and trailing silent blocks : NoNull samples used in CRC calculations : YesUsed interface : Native Win32 interface for Win NT & 2000

Used output format : User Defined EncoderSelected bitrate : 1024 kBit/sQuality : HighAdd ID3 tag : NoCommand line compressor : C:\Program Files (x86)\Exact Audio Copy\Flac\flac.exeAdditional command line options : -T "artist=%artist%" -T "title=%title%" -T "album=%albumtitle%" -T "date=%year%" -T "tracknumber=%tracknr%" -T "genre=%genre%" -5 %source%

TOC of the extracted CD

Track | Start | Length | Start sector | End sector --------------------------------------------------------- 1 | 0:00.00 | 2:52.51 | 0 | 12950 2 | 2:52.51 | 2:40.56 | 12951 | 25006 3 | 5:33.32 | 3:13.51 | 25007 | 39532 4 | 8:47.08 | 2:43.12 | 39533 | 51769 5 | 11:30.20 | 1:22.56 | 51770 | 57975 6 | 12:53.01 | 2:17.65 | 57976 | 68315 7 | 15:10.66 | 2:52.73 | 68316 | 81288 8 | 18:03.64 | 5:05.52 | 81289 | 104215 9 | 23:09.41 | 3:13.39 | 104216 | 118729 10 | 26:23.05 | 3:21.69 | 118730 | 133873 11 | 29:44.74 | 2:19.70 | 133874 | 144368 12 | 32:04.69 | 1:19.50 | 144369 | 150343 13 | 33:24.44 | 2:06.04 | 150344 | 159797 14 | 35:30.48 | 1:53.12 | 159798 | 168284 15 | 37:23.60 | 1:19.64 | 168285 | 174273 16 | 38:43.49 | 3:14.38 | 174274 | 188861 17 | 41:58.12 | 1:43.01 | 188862 | 196587 18 | 43:41.13 | 1:44.73 | 196588 | 204460 19 | 45:26.11 | 2:43.62 | 204461 | 216747 20 | 48:09.73 | 1:45.38 | 216748 | 224660 21 | 49:55.36 | 1:44.27 | 224661 | 232487

Range status and errors

Selected range

Filename E:\Temp\FLAC\Евгений Крылатов - Прекрасное далеко.wav

Peak level 100.0 % Extraction speed 5.6 X Range quality 100.0 % Test CRC BBA63D00 Copy CRC BBA63D00 Copy OK

No errors occurred

AccurateRip summary

Track 1 not present in databaseTrack 2 not present in databaseTrack 3 not present in databaseTrack 4 not present in databaseTrack 5 not present in databaseTrack 6 not present in databaseTrack 7 not present in databaseTrack 8 not present in databaseTrack 9 not present in databaseTrack 10 not present in databaseTrack 11 not present in databaseTrack 12 not present in databaseTrack 13 not present in databaseTrack 14 not present in databaseTrack 15 not present in databaseTrack 16 not present in databaseTrack 17 not present in databaseTrack 18 not present in databaseTrack 19 not present in databaseTrack 20 not present in databaseTrack 21 not present in database

None of the tracks are present in the AccurateRip database

End of status report

---- CUETools DB Plugin V2.1.6

[CTDB TOCID: 2MELWIgLYWwkA6Piu5Omug6h_x4-] disk not present in databaseSubmit result: 2MELWIgLYWwkA6Piu5Omug6h_x4- has been uploaded

==== Log checksum 73A03F3CCD29067EB777A5E1734F535FAFC46810590A5DC3CF16B4CFE84FAF66 ====

Евгений Крылатов • Всемирная музыкальная история
01. Музыкаиз к/ф «Дети понедельника»
02. Увертюраиз к/ф «Звезда Венера»
03. Грусть (музыкальная тема)
04. Первое свиданиеиз к/ф «Смятение чувств»
05. Музыкаиз к/ф «Приказано взять живым»
06. Музыкаиз к/ф «Конец императора тайги»
07. Шествиеиз к/ф «И тогда я сказал нет»
08. Тема любвииз к/ф «Смятение чувств»
09. Воспоминаниеиз к/ф «О любви»
10. Прологиз т/ф «Под Полярной звездой»
11. Музыкаиз к/ф «С любимыми не расставайтесь»
12. Музыкаиз к/ф «Торговая империя»
13. Музыкаиз к/ф «Ох, уж эта Настя»
14. Праздникиз к/ф «Под Полярной звездой»
15. Финализ к/ф «Торговая империя»
16. Праздникиз к/ф «Смятение чувств»
17. Музыкаиз спектакля«Ромео и Джульетта»
18. Финализ к/ф «И тогда я сказал нет»

Оркестр Госкино СССР, кроме (№17) Эстрадно-симфонический оркестр ЦТ и ВР, дир. Ю. Силантьев

Exact Audio Copy V1.0 beta 6 from 9. April 2015

EAC extraction logfile from 25. August 2015, 20:58

Евгений Крылатов / Всемирная музыкальная история

Used drive : ATAPI iHAS124 B Adapter: 1 ID: 1

Read mode : SecureUtilize accurate stream : YesDefeat audio cache : YesMake use of C2 pointers : No

Read offset correction : 6Overread into Lead-In and Lead-Out : NoFill up missing offset samples with silence : YesDelete leading and trailing silent blocks : NoNull samples used in CRC calculations : YesUsed interface : Native Win32 interface for Win NT & 2000

Used output format : User Defined EncoderSelected bitrate : 1024 kBit/sQuality : HighAdd ID3 tag : NoCommand line compressor : C:\Program Files (x86)\Exact Audio Copy\Flac\flac.exeAdditional command line options : -T "artist=%artist%" -T "title=%title%" -T "album=%albumtitle%" -T "date=%year%" -T "tracknumber=%tracknr%" -T "genre=%genre%" -5 %source%

TOC of the extracted CD

Track | Start | Length | Start sector | End sector --------------------------------------------------------- 1 | 0:00.00 | 2:51.06 | 0 | 12830 2 | 2:51.06 | 1:57.43 | 12831 | 21648 3 | 4:48.49 | 4:00.26 | 21649 | 39674 4 | 8:49.00 | 2:43.17 | 39675 | 51916 5 | 11:32.17 | 1:47.13 | 51917 | 59954 6 | 13:19.30 | 1:45.51 | 59955 | 67880 7 | 15:05.06 | 2:19.34 | 67881 | 78339 8 | 17:24.40 | 2:19.10 | 78340 | 88774 9 | 19:43.50 | 4:12.61 | 88775 | 107735 10 | 23:56.36 | 2:49.68 | 107736 | 120478 11 | 26:46.29 | 2:19.72 | 120479 | 130975 12 | 29:06.26 | 1:09.44 | 130976 | 136194 13 | 30:15.70 | 1:26.33 | 136195 | 142677 14 | 31:42.28 | 3:32.20 | 142678 | 158597 15 | 35:14.48 | 2:12.56 | 158598 | 168553 16 | 37:27.29 | 2:24.05 | 168554 | 179358 17 | 39:51.34 | 3:04.40 | 179359 | 193198 18 | 42:55.74 | 3:16.33 | 193199 | 207931

Range status and errors

Selected range

Filename E:\Temp\FLAC\Евгений Крылатов - Всемирная музыкальная история.wav

Peak level 94.4 % Extraction speed 1.8 X Range quality 100.0 % Test CRC E3565F3E Copy CRC E3565F3E Copy OK

No errors occurred

AccurateRip summary

Track 1 not present in databaseTrack 2 not present in databaseTrack 3 not present in databaseTrack 4 not present in databaseTrack 5 not present in databaseTrack 6 not present in databaseTrack 7 not present in databaseTrack 8 not present in databaseTrack 9 not present in databaseTrack 10 not present in databaseTrack 11 not present in databaseTrack 12 not present in databaseTrack 13 not present in databaseTrack 14 not present in databaseTrack 15 not present in databaseTrack 16 not present in databaseTrack 17 not present in databaseTrack 18 not present in database

None of the tracks are present in the AccurateRip database

End of status report

---- CUETools DB Plugin V2.1.6

[CTDB TOCID: 8z.4_NfmY9C6zONXYzmoVidh.Xw-] disk not present in databaseSubmit result: 8z.4_NfmY9C6zONXYzmoVidh.Xw- has been uploaded

==== Log checksum 99ABACC856E6F7678D809CA6634711122320BEB68CCA4CDDFE3D523DED888C16 ====

Евгений Крылатов • Grand Collection
01. Увертюраиз к/ф «Дети понедельника»
02. Воспоминаниеиз к/ф «О любви»
03. Ожиданиеиз т/ф «И это все о нём»
04. Первое свиданиеиз к/ф «Смятение чувств»
05. Ангелыиз к/ф «Сверчок за очагом»
06. Прогулка по городуиз к/ф «Ох, уж эта Настя»
07. Добрая феяиз к/ф «Серебряное ревю»
08. Вальсиз к/ф «Сладкая сказка»
09. Тема Алисыиз т/ф «Гостья из будущего»
10. Полетиз т/ф «Гостья из будущего»
11. Проезд по городуиз к/ф «Сверчок за очагом»
12. Драматический финализ к/ф «Не болит голова у дятла»
13. Первая встречаиз к/ф «О любви»
14. Вальсиз к/ф «Ох, уж эта Настя»
15. Эпилогиз к/ф «Хозяин империи»
16. Голос тундрыиз к/ф «Две луны»
17. Радостное утроиз к/ф «Талисман»
18. В походеиз к/ф «Морская граница»
19. Первая встречаиз к/ф «Меняю собаку на паровоз»
20. Размышлениеиз к/ф «И тогда я сказал нет»
21. Волшебный цветокиз к/ф «Дюймовочка»
22. Расставаниеиз к/ф «С любимыми не расставайтесь»
23. Ночная прогулкаиз к/ф «Не ходите, девки, замуж»
24. Прощание с Джайраниз к/ф «Разведенные мосты»
25. Торжественная линейкаиз к/ф «Ох, уж эта Настя»
26. Галопиз к/ф «Циркачонок»
27. Бизнес-клубиз к/ф «Хозяин империи»
28. Мечтаиз к/ф «Ключ без права передачи»
29. Появление Русалочкииз к/ф «Русалочка»
30. Увертюраиз к/ф «Звезда Венера»
31. Воспоминание о Чарли Чаплинеиз к/ф «Страсти о Севастьяне Бахове»
32. У каминаиз к/ф «Сверчок за очагом»

Оркестр Госкино СССР

Exact Audio Copy V1.0 beta 4 from 7. December 2014

EAC extraction logfile from 24. August 2015, 20:33

Евгений Крылатов / Grand Collection

Used drive : ATAPI iHAS124 B Adapter: 1 ID: 1

Read mode : SecureUtilize accurate stream : YesDefeat audio cache : YesMake use of C2 pointers : No

Read offset correction : 6Overread into Lead-In and Lead-Out : NoFill up missing offset samples with silence : YesDelete leading and trailing silent blocks : NoNull samples used in CRC calculations : YesUsed interface : Native Win32 interface for Win NT & 2000

Used output format : User Defined EncoderSelected bitrate : 1024 kBit/sQuality : HighAdd ID3 tag : NoCommand line compressor : C:\Program Files (x86)\Exact Audio Copy\Flac\flac.exeAdditional command line options : -T "artist=%artist%" -T "title=%title%" -T "album=%albumtitle%" -T "date=%year%" -T "tracknumber=%tracknr%" -T "genre=%genre%" -5 %source%

TOC of the extracted CD

Track | Start | Length | Start sector | End sector --------------------------------------------------------- 1 | 0:00.00 | 2:53.63 | 0 | 13037 2 | 2:53.63 | 4:18.01 | 13038 | 32388 3 | 7:11.64 | 4:30.63 | 32389 | 52701 4 | 11:42.52 | 5:05.48 | 52702 | 75624 5 | 16:48.25 | 3:37.53 | 75625 | 91952 6 | 20:26.03 | 1:45.71 | 91953 | 99898 7 | 22:11.74 | 1:56.54 | 99899 | 108652 8 | 24:08.53 | 0:48.61 | 108653 | 112313 9 | 24:57.39 | 1:10.16 | 112314 | 117579 10 | 26:07.55 | 2:46.19 | 117580 | 130048 11 | 28:53.74 | 3:01.46 | 130049 | 143669 12 | 31:55.45 | 3:05.07 | 143670 | 157551 13 | 35:00.52 | 3:43.29 | 157552 | 174305 14 | 38:44.06 | 1:21.58 | 174306 | 180438 15 | 40:05.64 | 1:52.07 | 180439 | 188845 16 | 41:57.71 | 4:55.31 | 188846 | 211001 17 | 46:53.27 | 2:19.14 | 211002 | 221440 18 | 49:12.41 | 2:14.04 | 221441 | 231494 19 | 51:26.45 | 1:20.46 | 231495 | 237540 20 | 52:47.16 | 1:35.09 | 237541 | 244674 21 | 54:22.25 | 1:25.14 | 244675 | 251063 22 | 55:47.39 | 1:46.32 | 251064 | 259045 23 | 57:33.71 | 1:59.72 | 259046 | 268042 24 | 59:33.68 | 3:38.39 | 268043 | 284431 25 | 63:12.32 | 1:42.31 | 284432 | 292112 26 | 64:54.63 | 1:59.21 | 292113 | 301058 27 | 66:54.09 | 1:54.38 | 301059 | 309646 28 | 68:48.47 | 2:22.58 | 309647 | 320354 29 | 71:11.30 | 3:12.73 | 320355 | 334827 30 | 74:24.28 | 2:03.02 | 334828 | 344054 31 | 76:27.30 | 2:07.37 | 344055 | 353616 32 | 78:34.67 | 0:49.12 | 353617 | 357303

Range status and errors

Selected range

Filename E:\Temp\FLAC\Евгений Крылатов - Grand Collection.wav

Peak level 100.0 % Extraction speed 2.5 X Range quality 100.0 % Test CRC CF479C72 Copy CRC CF479C72 Copy OK

No errors occurred

AccurateRip summary

Track 1 not present in databaseTrack 2 not present in databaseTrack 3 not present in databaseTrack 4 not present in databaseTrack 5 not present in databaseTrack 6 not present in databaseTrack 7 not present in databaseTrack 8 not present in databaseTrack 9 not present in databaseTrack 10 not present in databaseTrack 11 not present in databaseTrack 12 not present in databaseTrack 13 not present in databaseTrack 14 not present in databaseTrack 15 not present in databaseTrack 16 not present in databaseTrack 17 not present in databaseTrack 18 not present in databaseTrack 19 not present in databaseTrack 20 not present in databaseTrack 21 not present in databaseTrack 22 not present in databaseTrack 23 not present in databaseTrack 24 not present in databaseTrack 25 not present in databaseTrack 26 not present in databaseTrack 27 not present in databaseTrack 28 not present in databaseTrack 29 not present in databaseTrack 30 not present in databaseTrack 31 not present in databaseTrack 32 not present in database

None of the tracks are present in the AccurateRip database

End of status report

---- CUETools DB Plugin V2.1.4

[CTDB TOCID: aiSK1QHeqAbxTdgGtJvlcBYEBM4-] disk not present in databaseSubmit result: aiSK1QHeqAbxTdgGtJvlcBYEBM4- has been uploaded

==== Log checksum 88EA865A721259D35B37295B3AB9148770380BA438A7D9A09C9CAD76EB33ABFC ====



Трекер:  [ 30-Авг-2015 22:30 ]

  

Скачать .torrent

Размер .torrent файла 46 KB


Размер: 3.17 GB
Хэш (hash) релиза: 500f68c7b9d01971a561e70a14232fb9e29889a9

Еще никто не оставлял запись к записи скачать торрент Евгений Крылатов - Коллекция CD-сборников . Будь первым!

!Обратная связь