Скачать через торрент музыку Оранжевый - хит сезона Orange Is the New Black: Original Score from the First Two Seasons бесплатно без регистрации torrent

Если у вас наблюдаются проблемы со скриншотами, переходом по ссылками, скачиванием торрентов - проблемы в блокировщике рекламы AdBlock. #хорошегоДня!


Статистика раздачи
Размер:  297 MB   |    Зарегистрирован:  2 года   |    .torrent скачан:  1242 раза   |   
Раздают:  1  
   
Загрузка...
 
Автор Сообщение

Galfimbul

avatar Galfimbul


Orange Is The New Black - Original Score from the First Two Seasons Жанр: Score
Год издания: 2015
Издатель (лейбл): Varese Sarabande
Номер по каталогу: 3020673148
Страна: US
Аудиокодек: FLAC (image+.cue)
Битрейт аудио: lossless
Продолжительность: 01:08:21
Источник (релизер): CD из личной коллекции
Наличие сканов в содержимом раздачи: нет
Треклист:
01. I Don’t Need Your Cornbread [02:03]
02. Crazy Peppers [03:05]
03. Toilet To Myself [01:05]
04. Don’t Make Me Cut You [01:53]
05. Bra And Panties [01:19]
06. Everybody Loves Dayanara [02:25]
07. Eat The World [02:11]
08. Fun with Cigarettes [03:03]
09. Chapman’s Angle [01:40]
10. Tables And Clicks [02:22]
11. Score One For Pennsatucky [02:29]
12. Alex In The Dryer [03:02]
13. Exit The Pornstache [04:02]
14. Rocker Lezzy Girlfriend [01:08]
15. Less Feisty More Heisty [02:51]
16. Larry’s Proposal [02:26]
17. Screwed [03:15]
18. Waffles And Eggs [01:15]
19. No No Yes No No [01:29]
20. Enter The Healy [02:32]
21. People Are People [01:27]
22. World’s Greatest Job [01:48]
23. Red Sees Red [01:11]
24. It’s A Furlough Kinda Day [00:48]
25. Two Strikes [02:11]
26. Boil And Bubble [02:25]
27. Score One For Taystee [00:58]
28. To The Shu [02:47]
29. The Magical Mystery Chicken [02:17]
30. Red Hot Chili Peppers [01:56]
31. The Mother I Wanted [02:15]
32. Fly On Little Wing [02:58]
Exact Audio Copy V1.0 beta 6 from 9. April 2015

Отчёт EAC об извлечении, выполненном 8. июля 2015, 22:44

Gwendolyn Sanford, Brandon Jay & Scott Doherty / Orange Is The New Black: Original Score from the First Two Seasons

Дисковод: ASUS BW-12B1ST Adapter: 1 ID: 0

Режим чтения : ДостоверностьИспользование точного потока : ДаОтключение кэша аудио : ДаИспользование указателей C2 : Нет

Коррекция смещения при чтении : 6Способность читать области Lead-in и Lead-out : НетЗаполнение пропущенных сэмплов тишиной : ДаУдаление блоков с тишиной в начале и конце : НетПри вычислениях CRC использовались нулевые сэмплы : ДаИнтерфейс : Встроенный Win32-интерфейс для Win NT/2000

Выходной формат : Внутренние WAV-операцииФормат сэмплов : 44.100 Гц; 16 бит; стерео

TOC извлечённого CD

Трек | Старт | Длительность | Начальный сектор | Конечный сектор --------------------------------------------------------------------- 1 | 0:00.00 | 2:03.00 | 0 | 9224 2 | 2:03.00 | 3:04.37 | 9225 | 23061 3 | 5:07.37 | 1:04.49 | 23062 | 27910 4 | 6:12.11 | 1:52.17 | 27911 | 36327 5 | 8:04.28 | 1:18.36 | 36328 | 42213 6 | 9:22.64 | 2:24.33 | 42214 | 53046 7 | 11:47.22 | 2:10.17 | 53047 | 62813 8 | 13:57.39 | 3:02.73 | 62814 | 76536 9 | 17:00.37 | 1:39.61 | 76537 | 84022 10 | 18:40.23 | 2:21.56 | 84023 | 94653 11 | 21:02.04 | 2:28.34 | 94654 | 105787 12 | 23:30.38 | 3:01.42 | 105788 | 119404 13 | 26:32.05 | 4:01.74 | 119405 | 137553 14 | 30:34.04 | 1:07.68 | 137554 | 142646 15 | 31:41.72 | 2:50.49 | 142647 | 155445 16 | 34:32.46 | 2:25.34 | 155446 | 166354 17 | 36:58.05 | 3:14.25 | 166355 | 180929 18 | 40:12.30 | 1:14.13 | 180930 | 186492 19 | 41:26.43 | 1:28.22 | 186493 | 193114 20 | 42:54.65 | 2:31.32 | 193115 | 204471 21 | 45:26.22 | 1:26.54 | 204472 | 210975 22 | 46:53.01 | 1:47.70 | 210976 | 219070 23 | 48:40.71 | 1:10.13 | 219071 | 224333 24 | 49:51.09 | 0:47.12 | 224334 | 227870 25 | 50:38.21 | 2:10.12 | 227871 | 237632 26 | 52:48.33 | 2:24.16 | 237633 | 248448 27 | 55:12.49 | 0:57.59 | 248449 | 252782 28 | 56:10.33 | 2:46.69 | 252783 | 265301 29 | 58:57.27 | 2:16.51 | 265302 | 275552 30 | 61:14.03 | 1:55.10 | 275553 | 284187 31 | 63:09.13 | 2:14.05 | 284188 | 294242 32 | 65:23.18 | 2:57.25 | 294243 | 307542

Характеристики диапазона извлечения и сообщения об ошибках

Выбранный диапазон

Имя файла D:\EAC\GWENDO~1\Gwendolyn Sanford, Brandon Jay & Scott Doherty - 2015 - Orange Is The New Black - Original Score from the First Two Seasons.wav

Пиковый уровень 93.4 % Скорость извлечения 3.7 X Качество диапазона 100.0 % CRC теста D6511C80 CRC копии D6511C80 Копирование... OK

Ошибок не произошло

AccurateRip: сводка

Трек 1 отсутствует в базе данныхТрек 2 отсутствует в базе данныхТрек 3 отсутствует в базе данныхТрек 4 отсутствует в базе данныхТрек 5 отсутствует в базе данныхТрек 6 отсутствует в базе данныхТрек 7 отсутствует в базе данныхТрек 8 отсутствует в базе данныхТрек 9 отсутствует в базе данныхТрек 10 отсутствует в базе данныхТрек 11 отсутствует в базе данныхТрек 12 отсутствует в базе данныхТрек 13 отсутствует в базе данныхТрек 14 отсутствует в базе данныхТрек 15 отсутствует в базе данныхТрек 16 отсутствует в базе данныхТрек 17 отсутствует в базе данныхТрек 18 отсутствует в базе данныхТрек 19 отсутствует в базе данныхТрек 20 отсутствует в базе данныхТрек 21 отсутствует в базе данныхТрек 22 отсутствует в базе данныхТрек 23 отсутствует в базе данныхТрек 24 отсутствует в базе данныхТрек 25 отсутствует в базе данныхТрек 26 отсутствует в базе данныхТрек 27 отсутствует в базе данныхТрек 28 отсутствует в базе данныхТрек 29 отсутствует в базе данныхТрек 30 отсутствует в базе данныхТрек 31 отсутствует в базе данныхТрек 32 отсутствует в базе данных

Ни одного трека нет в базе AccurateRip

Конец отчёта

---- CUETools DB Plugin V2.1.6

[CTDB TOCID: z2FNlFH8k.mmPViGMZbgOHMcrt4-] disk not present in databaseSubmit result: z2FNlFH8k.mmPViGMZbgOHMcrt4- has been uploaded

==== Контрольная сумма отчёта CB0D67169327FC765982E9A96A6AF44D142A468865F6D7BC5F5F1BFA8FAF3537 ====
P.S.[url=...4805063](Soundtrack) Оранжевый - хит сезона / Orange Is the New Black: Music From The Television Series, 2014, FLAC (image+.cue), lossless[/url]

Трекер:  [ 30-Авг-2015 10:00 ]

  

Скачать .torrent

Размер .torrent файла 12 KB


Размер: 297 MB
Хэш (hash) релиза: 5577fea44c953b8d2a5d0d6930317a6071f7eff7

Еще никто не оставлял запись к записи скачать торрент Оранжевый - хит сезона Orange Is the New Black: Original Score from the First Two Seasons . Будь первым!

!Обратная связь