Скачать через торрент музыку бесплатно без регистрации torrent

Если у вас наблюдаются проблемы со скриншотами, переходом по ссылками, скачиванием торрентов - проблемы в блокировщике рекламы AdBlock. #хорошегоДня!


Статистика раздачи
Размер:  194 MB   |    Зарегистрирован:  2 года   |    .torrent скачан:  42 раза   |   
Раздают:  1  
   
Загрузка...
 
Автор Сообщение

Galfimbul

avatar Galfimbul


Левша / Southpaw

Название альбома: Southpaw (Original Motion Picture Soundtrack)
Жанр: Score
Носитель: WEB
Композитор: James Horner
Год выпуска: 2015
Издатель (лейбл): Sony Classics
Аудиокодек: FLAC (*.flac)
Тип рипа: tracks
Битрейт аудио: lossless
Продолжительность: 00:52:11
Источник: WRZMusic (Wilhelm Reich)
Наличие сканов в содержимом раздачи: нет

http://www.kinopoisk.ru/film/573990/
http://www.soundtrackcollector.com/title/108150/Southpaw
http://www.qobuz.com/fr-fr/album/southpaw-original-motion-picture-soundtrack-james-horner/0886445186789

Треклист:
01. The Preparations (2:37)
02. A More Normal Life (1:43)
03. A Fatal Tragedy (2:34)
04. The Funeral, Alone… (5:17)
05. Suicidal Rampage (8:28)
06. Empty Showers (3:39)
07. Dream Crusher (2:31)
08. A Cry for Help (4:17)
09. House Auction (2:39)
10. A Long Road Back (2:27)
11. Training (3:53)
12. How Much They Miss Her (2:15)
13. Hope vs Escobar (8:26)
14. A Quiet Moment… (1:26)
-----------------------

DON'T MODIFY THIS FILE

-----------------------

PERFORMER: auCDtect Task Manager, ver. 1.5.1RC6 build 1.5.1.7Copyright (c) 2008-2010 y-soft. All rights reservedhttp://y-soft.org

ANALYZER: auCDtect: CD records authenticity detector, version 0.8.2Copyright (c) 2004 Oleg Berngardt. All rights reserved.Copyright (c) 2004 Alexander Djourik. All rights reserved.

FILE: 01. The Preparations.flac Size: 7408134 Hash: 7B5C9F9B1C84CE3E93BDE1F0ACD2197C Accuracy: -m8 Conclusion: CDDA 100% Signature: CD9D4D0A769B4D84E395CFD9E9D7B0B1FA7EE108FILE: 02. A More Normal Life.flac Size: 4650938 Hash: 6275456D3DA9453BBCAB02028A3B8664 Accuracy: -m8 Conclusion: MPEG 90% Signature: C5B5F2593A92E3509FE8D9CA3E1A7DC89947CC7EFILE: 03. A Fatal Tragedy.flac Size: 11555863 Hash: 9D37DADDDD7A9085FD75E634C3CEDFC5 Accuracy: -m8 Conclusion: CDDA 100% Signature: E8BBAECB018FB410E5A1FAE3EDC89E0DB8C97E8DFILE: 04. The Funeral, Alone....flac Size: 21008080 Hash: A23C6D8C516E8A8C4252E59349C8BBF3 Accuracy: -m8 Conclusion: CDDA 62% Signature: 4DC2B6EE4899095ECA159097E6E34C6C378A6C1BFILE: 05. Suicidal Rampage.flac Size: 31372679 Hash: 2BAF5237B9E702EB1D6EE51C076C6AEF Accuracy: -m8 Conclusion: CDDA 43% Signature: 1C2FEFF24C92A2D0731D66313B165F74D3AD1A86FILE: 06. Empty Showers.flac Size: 14109133 Hash: E979F4000424C77BD85A59F019E73AA5 Accuracy: -m8 Conclusion: CDDA 85% Signature: 69613A6440CD05B659E2570FE853565A4E45C2FDFILE: 07. Dream Crusher.flac Size: 10878996 Hash: CF3549130DC81A1DB09026C8F8FBA346 Accuracy: -m8 Conclusion: CDDA 99% Signature: DFF54A6C3CAFBB740DE3DC887818F3FCEE85AA4EFILE: 08. A Cry for Help.flac Size: 16520655 Hash: 9E7A5743AF16FF2E31BBF9223C3DA505 Accuracy: -m8 Conclusion: CDDA 87% Signature: 655871959A92B864AD6D05FAE76F5B117BD805F8FILE: 09. House Auction.flac Size: 10598008 Hash: 0131E4EBA5A50039F6C571C6B20C354C Accuracy: -m8 Conclusion: CDDA 100% Signature: 6D56A6748BE29BD401E30EB276C8686520F81EB9FILE: 10. A Long Road Back.flac Size: 9729302 Hash: 361628391967548018829A23BD09F7E7 Accuracy: -m8 Conclusion: CDDA 100% Signature: B984BB935C2C06A276DFD9140481B11739AA717BFILE: 11. Training.flac Size: 12447760 Hash: 461586F79457CF89A941D9C55FF9D19B Accuracy: -m8 Conclusion: CDDA 100% Signature: 21D13C9F65B95425D56A8911854E8F056EA810B3FILE: 12. How Much They Miss Her.flac Size: 7467430 Hash: 467DA7752FA67673F2E78FBF65666777 Accuracy: -m8 Conclusion: CDDA 100% Signature: E0C117655437100D17E10AFCF252E60E9991DE28FILE: 13. Hope vs Escobar.flac Size: 42248353 Hash: A9A061D5F8E207C75A36256D0319DDE5 Accuracy: -m8 Conclusion: CDDA 100% Signature: 0C87F74D681701927D59399469FE1EF7553D85D3FILE: 14. A Quiet Moment....flac Size: 3762667 Hash: 98F1DCE4DC454C2D776CF761506A498E Accuracy: -m8 Conclusion: CDDA 100% Signature: ACAC471D64E127C01BD0334A0A997A8861A05C38
foobar2000 1.2.8 / Dynamic Range Meter 1.1.1log date: 2015-07-24 03:12:19

--------------------------------------------------------------------------------Analyzed: James Horner / Southpaw (Original Motion Picture Soundtrack)--------------------------------------------------------------------------------

DR Peak RMS Duration Track--------------------------------------------------------------------------------DR10 -3.69 dB -19.48 dB 2:37 01-The PreparationsDR10 -7.65 dB -27.01 dB 1:43 02-A More Normal LifeDR14 -3.09 dB -21.73 dB 2:34 03-A Fatal TragedyDR12 -6.68 dB -24.54 dB 5:17 04-The Funeral, Alone...DR12 -0.54 dB -18.16 dB 8:28 05-Suicidal RampageDR10 -3.24 dB -20.11 dB 3:39 06-Empty ShowersDR11 -10.92 dB -28.14 dB 2:31 07-Dream CrusherDR14 -1.05 dB -22.20 dB 4:17 08-A Cry for HelpDR11 -3.68 dB -21.99 dB 2:39 09-House AuctionDR10 -6.25 dB -21.57 dB 2:27 10-A Long Road BackDR13 -5.89 dB -25.40 dB 3:53 11-TrainingDR12 -13.66 dB -34.59 dB 2:15 12-How Much They Miss HerDR12 -0.06 dB -15.99 dB 8:26 13-Hope vs EscobarDR12 -21.95 dB -40.11 dB 1:26 14-A Quiet Moment...--------------------------------------------------------------------------------

Number of tracks: 14Official DR value: DR12

Samplerate: 44100 HzChannels: 2Bits per sample: 16Bitrate: 338 kbpsCodec: FLAC================================================================================


Трекер:  [ 30-Авг-2015 10:00 ]

  

Скачать .torrent

Размер .torrent файла 5 KB


Размер: 194 MB
Хэш (hash) релиза: 48e9c8f70745d3a25aa6906cd7680bdfe33b5e4f

Еще никто не оставлял запись к записи скачать торрент . Будь первым!

!Обратная связь