Скачать через торрент музыку Тибо Thibaud ou les Croisades бесплатно без регистрации torrent

Если у вас наблюдаются проблемы со скриншотами, переходом по ссылками, скачиванием торрентов - проблемы в блокировщике рекламы AdBlock. #хорошегоДня!


Статистика раздачи
Размер:  536 MB   |    Зарегистрирован:  2 года   |    .torrent скачан:  17 раз   |   
Раздают:  1  
   
Загрузка...
 
Автор Сообщение

Galfimbul

avatar Galfimbul



Тибо / Thibaud ou les Croisades
Composed and Conducted by Georges Delerue
Limited Edition of 1000 Copies

Жанр: Score | Дата выпуска: 20 июля 2015
Издатель (лейбл): Music Box Records | Номер по каталогу: MBR-070
Аудиокодек: FLAC | Тип рипа: image+.cue | Битрейт аудио: lossless
Общая продолжительность: 67:12
Источник: Рип оригинального диска из личной коллекции


★★ Thibaud ou les Croisades ★★ (1968)
01. Générique début [1:56]
02. Le désert [1:31]
03. L'armée turque [2:44]
04. Thème de Sybille [2:02]
05. Le scorpion [2:19]
06. Thème de Thibaud [2:52]
07. La marche des Croisés [1:53]
08. Chaleur et poussière [2:17]
09. La danse de la fertilité [1:19]
10. La tristesse des Croisés [2:36]
11. Nostalgie [3:34]
12. L'armée turque en marche [4:07]
13. Le marché arabe [2:27]
14. Nocturne [2:36]
15. Thibaud, le chevalier blanc [1:03]
16. Les traîtres [3:38]
17. Le mariage de Blanchot [2:28]
18. Le pillage du village [2:47]
19. Les festivités [1:45]
20. La forteresse de Zengi [2:41]
21. La joie de Thibaud [1:11]
22. Générique de fin [2:03]

★★ Fortune ★★ (1969)
23. Fortune [1:49]
24. Mappemonde [2:08]
25. La nuit [1:24]
26. Saloon [2:25]
27. Thème de Jenny [1:30]
28. Californie [1:38]
29. Tristesse de Johann Sutter [1:43]
30. Générique de fin [1:30]
Exact Audio Copy V1.0 beta 4 from 7. December 2014

EAC extraction logfile from 11. August 2015, 12:51

Georges Delerue / Thibaud ou les Croisades

Used drive : TSSTcorpCDDVDW TS-L633C Adapter: 1 ID: 0

Read mode : SecureUtilize accurate stream : YesDefeat audio cache : YesMake use of C2 pointers : No

Read offset correction : 6Overread into Lead-In and Lead-Out : NoFill up missing offset samples with silence : YesDelete leading and trailing silent blocks : NoNull samples used in CRC calculations : YesUsed interface : Native Win32 interface for Win NT & 2000

Used output format : Internal WAV RoutinesSample format : 44.100 Hz; 16 Bit; Stereo

TOC of the extracted CD

Track | Start | Length | Start sector | End sector --------------------------------------------------------- 1 | 0:00.00 | 1:58.04 | 0 | 8853 2 | 1:58.04 | 1:33.23 | 8854 | 15851 3 | 3:31.27 | 2:46.63 | 15852 | 28364 4 | 6:18.15 | 2:04.45 | 28365 | 37709 5 | 8:22.60 | 2:21.54 | 37710 | 48338 6 | 10:44.39 | 2:54.19 | 48339 | 61407 7 | 13:38.58 | 1:55.59 | 61408 | 70091 8 | 15:34.42 | 2:19.41 | 70092 | 80557 9 | 17:54.08 | 1:21.02 | 80558 | 86634 10 | 19:15.10 | 2:38.74 | 86635 | 98558 11 | 21:54.09 | 3:36.53 | 98559 | 114811 12 | 25:30.62 | 4:09.30 | 114812 | 133516 13 | 29:40.17 | 2:29.41 | 133517 | 144732 14 | 32:09.58 | 2:37.68 | 144733 | 156575 15 | 34:47.51 | 1:05.72 | 156576 | 161522 16 | 35:53.48 | 3:40.34 | 161523 | 178056 17 | 39:34.07 | 2:31.26 | 178057 | 189407 18 | 42:05.33 | 2:49.10 | 189408 | 202092 19 | 44:54.43 | 1:47.57 | 202093 | 210174 20 | 46:42.25 | 2:43.34 | 210175 | 222433 21 | 49:25.59 | 1:13.31 | 222434 | 227939 22 | 50:39.15 | 2:08.59 | 227940 | 237598 23 | 52:47.74 | 1:51.00 | 237599 | 245923 24 | 54:38.74 | 2:10.25 | 245924 | 255698 25 | 56:49.24 | 1:26.28 | 255699 | 262176 26 | 58:15.52 | 2:27.53 | 262177 | 273254 27 | 60:43.30 | 1:32.43 | 273255 | 280197 28 | 62:15.73 | 1:40.26 | 280198 | 287723 29 | 63:56.24 | 1:45.33 | 287724 | 295631 30 | 65:41.57 | 1:30.27 | 295632 | 302408

Range status and errors

Selected range

Filename D:\Georges Delerue - CD Collection [by italia57]\Georges Delerue (1968) Thibaud ou les Croisades\Georges Delerue - Thibaud ou les Croisades (MBR-

070).wav

Peak level 93.8 % Extraction speed 3.8 X Range quality 99.9 % Test CRC E8B32D13 Copy CRC E8B32D13 Copy OK

No errors occurred

AccurateRip summary

Track 1 not present in databaseTrack 2 not present in databaseTrack 3 not present in databaseTrack 4 not present in databaseTrack 5 not present in databaseTrack 6 not present in databaseTrack 7 not present in databaseTrack 8 not present in databaseTrack 9 not present in databaseTrack 10 not present in databaseTrack 11 not present in databaseTrack 12 not present in databaseTrack 13 not present in databaseTrack 14 not present in databaseTrack 15 not present in databaseTrack 16 not present in databaseTrack 17 not present in databaseTrack 18 not present in databaseTrack 19 not present in databaseTrack 20 not present in databaseTrack 21 not present in databaseTrack 22 not present in databaseTrack 23 not present in databaseTrack 24 not present in databaseTrack 25 not present in databaseTrack 26 not present in databaseTrack 27 not present in databaseTrack 28 not present in databaseTrack 29 not present in databaseTrack 30 not present in database

None of the tracks are present in the AccurateRip database

End of status report

---- CUETools DB Plugin V2.1.4

[CTDB TOCID: H2yGFZmjnhH1xCbdyVCLCoE5E_0-] foundSubmit result: H2yGFZmjnhH1xCbdyVCLCoE5E_0- has been confirmedTrack | CTDB Status 1 | (5/5) Accurately ripped 2 | (5/5) Accurately ripped 3 | (5/5) Accurately ripped 4 | (5/5) Accurately ripped 5 | (5/5) Accurately ripped 6 | (5/5) Accurately ripped 7 | (5/5) Accurately ripped 8 | (5/5) Accurately ripped 9 | (5/5) Accurately ripped 10 | (5/5) Accurately ripped 11 | (5/5) Accurately ripped 12 | (5/5) Accurately ripped 13 | (5/5) Accurately ripped 14 | (5/5) Accurately ripped 15 | (5/5) Accurately ripped 16 | (5/5) Accurately ripped 17 | (5/5) Accurately ripped 18 | (5/5) Accurately ripped 19 | (5/5) Accurately ripped 20 | (5/5) Accurately ripped 21 | (5/5) Accurately ripped 22 | (5/5) Accurately ripped 23 | (5/5) Accurately ripped 24 | (5/5) Accurately ripped 25 | (5/5) Accurately ripped 26 | (5/5) Accurately ripped 27 | (5/5) Accurately ripped 28 | (5/5) Accurately ripped 29 | (5/5) Accurately ripped 30 | (5/5) Accurately ripped

==== Log checksum 0122ADA1A2A84AFDA1EC772257A9F2101267B5D638365A27F6F10BB5A0D16E7B ====
REM GENRE SoundtrackREM DATE 1968REM DISCID B40FC01EREM COMMENT "ExactAudioCopy v1.0b4"PERFORMER "Georges Delerue"TITLE "Thibaud ou les Croisades"FILE "Georges Delerue - Thibaud ou les Croisades (MBR-070).flac" WAVE TRACK 01 AUDIO TITLE "Generique debut" PERFORMER "Georges Delerue" INDEX 01 00:00:00 TRACK 02 AUDIO TITLE "Le desert" PERFORMER "Georges Delerue" INDEX 00 01:56:04 INDEX 01 01:58:04 TRACK 03 AUDIO TITLE "L'armee turque" PERFORMER "Georges Delerue" INDEX 00 03:29:27 INDEX 01 03:31:27 TRACK 04 AUDIO TITLE "Theme de Sybille" PERFORMER "Georges Delerue" INDEX 00 06:16:15 INDEX 01 06:18:15 TRACK 05 AUDIO TITLE "Le scorpion" PERFORMER "Georges Delerue" INDEX 00 08:20:60 INDEX 01 08:22:60 TRACK 06 AUDIO TITLE "Theme de Thibaud" PERFORMER "Georges Delerue" INDEX 00 10:42:39 INDEX 01 10:44:39 TRACK 07 AUDIO TITLE "La marche des Croises" PERFORMER "Georges Delerue" INDEX 00 13:36:58 INDEX 01 13:38:58 TRACK 08 AUDIO TITLE "Chaleur et poussiere" PERFORMER "Georges Delerue" INDEX 00 15:32:42 INDEX 01 15:34:42 TRACK 09 AUDIO TITLE "La danse de la fertilite" PERFORMER "Georges Delerue" INDEX 00 17:52:08 INDEX 01 17:54:08 TRACK 10 AUDIO TITLE "La tristesse des Croises" PERFORMER "Georges Delerue" INDEX 00 19:13:10 INDEX 01 19:15:10 TRACK 11 AUDIO TITLE "Nostalgie" PERFORMER "Georges Delerue" INDEX 00 21:52:09 INDEX 01 21:54:09 TRACK 12 AUDIO TITLE "L'armee turque en marche " PERFORMER "Georges Delerue" INDEX 00 25:28:62 INDEX 01 25:30:62 TRACK 13 AUDIO TITLE "Le marche arabe" PERFORMER "Georges Delerue" INDEX 00 29:38:17 INDEX 01 29:40:17 TRACK 14 AUDIO TITLE "Nocturne" PERFORMER "Georges Delerue" INDEX 00 32:07:58 INDEX 01 32:09:58 TRACK 15 AUDIO TITLE "Thibaud, le chevalier blanc" PERFORMER "Georges Delerue" INDEX 00 34:46:51 INDEX 01 34:47:51 TRACK 16 AUDIO TITLE "Les traitres" PERFORMER "Georges Delerue" INDEX 00 35:51:48 INDEX 01 35:53:48 TRACK 17 AUDIO TITLE "Le mariage de Blanchot" PERFORMER "Georges Delerue" INDEX 00 39:32:07 INDEX 01 39:34:07 TRACK 18 AUDIO TITLE "Le pillage du village" PERFORMER "Georges Delerue" INDEX 00 42:03:00 INDEX 01 42:05:33 TRACK 19 AUDIO TITLE "Les festivites" PERFORMER "Georges Delerue" INDEX 00 44:52:43 INDEX 01 44:54:43 TRACK 20 AUDIO TITLE "La forteresse de Zengi" PERFORMER "Georges Delerue" INDEX 00 46:40:25 INDEX 01 46:42:25 TRACK 21 AUDIO TITLE "La joie de Thibaud" PERFORMER "Georges Delerue" INDEX 00 49:23:59 INDEX 01 49:25:59 TRACK 22 AUDIO TITLE "Generique de fin" PERFORMER "Georges Delerue" INDEX 00 50:37:15 INDEX 01 50:39:15 TRACK 23 AUDIO TITLE "Fortune" PERFORMER "Georges Delerue" INDEX 00 52:42:74 INDEX 01 52:47:74 TRACK 24 AUDIO TITLE "Mappemonde" PERFORMER "Georges Delerue" INDEX 00 54:36:74 INDEX 01 54:38:74 TRACK 25 AUDIO TITLE "La nuit" PERFORMER "Georges Delerue" INDEX 00 56:47:24 INDEX 01 56:49:24 TRACK 26 AUDIO TITLE "Saloon" PERFORMER "Georges Delerue" INDEX 00 58:13:52 INDEX 01 58:15:52 TRACK 27 AUDIO TITLE "Theme de Jenny" PERFORMER "Georges Delerue" INDEX 00 60:41:30 INDEX 01 60:43:30 TRACK 28 AUDIO TITLE "Californie" PERFORMER "Georges Delerue" INDEX 00 62:13:73 INDEX 01 62:15:73 TRACK 29 AUDIO TITLE "Tristesse de Johann Sutter" PERFORMER "Georges Delerue" INDEX 00 63:54:24 INDEX 01 63:56:24 TRACK 30 AUDIO TITLE "Generique de fin" PERFORMER "Georges Delerue" INDEX 00 65:39:57 INDEX 01 65:41:57


Трекер:  [ 30-Авг-2015 10:00 ]

  

Скачать .torrent

Размер .torrent файла 22 KB


Размер: 536 MB
Хэш (hash) релиза: fd545aa07167517c30fa2deaaf0e9dc6cccbb7cf

Еще никто не оставлял запись к записи скачать торрент Тибо Thibaud ou les Croisades . Будь первым!

!Обратная связь