Скачать через торрент музыку бесплатно без регистрации torrent

Если у вас наблюдаются проблемы со скриншотами, переходом по ссылками, скачиванием торрентов - проблемы в блокировщике рекламы AdBlock. #хорошегоДня!


Статистика раздачи
Размер:  253 MB   |    Зарегистрирован:  2 года   |    .torrent скачан:  99 раз   |   
Раздают:  1  
   
Загрузка...
 
Автор Сообщение

Galfimbul

avatar Galfimbul


Настоящий детектив - True Detective

Название альбома: True Detective (Music From the HBO Series)
Жанр: Soundtrack
Носитель: WEB
Год выпуска: 2015
Издатель (лейбл): Universal Music GmbH
Аудиокодек: FLAC (*.flac)
Тип рипа: tracks
Битрейт аудио: lossless
Продолжительность: 00:45:20
Источник (релизер): WRZMusic (Wilhelm Reich)
Наличие сканов в содержимом раздачи: да



Треклист:
01. Leonard Cohen – Nevermind (4:39)
02. Lera Lynn – The Only Thing Worth Fighting For (3:16)
03. Nick Cave & Warren Ellis – All the Gold In California (2:26)
04. Lera Lynn – Lately (3:57)
05. John Paul White – What a Way To Go (3:06)
06. Lera Lynn – My Least Favorite Life (3:29)
07. The Handsome Family – Far From Any Road (2:48)
08. Alexandra Semitone – Risk [Demo] (4:00)
09. Cassandra Wilson – Sign of the Judgment (4:01)
10. Bob Dylan – Rocks and Gravel (2:26)
11. Lera Lynn – A Church In Ruins (2:51)
12. Bonnie "Prince" Billy – Intentional Injury (2:24)
13. Lera Lynn – It Only Takes One Shot (2:53)
14. S.I. Istwa & Father John Misty – The Angry River (2:55)
-----------------------

DON'T MODIFY THIS FILE

-----------------------

PERFORMER: auCDtect Task Manager, ver. 1.5.1RC6 build 1.5.1.7Copyright (c) 2008-2010 y-soft. All rights reservedhttp://y-soft.org

ANALYZER: auCDtect: CD records authenticity detector, version 0.8.2Copyright (c) 2004 Oleg Berngardt. All rights reserved.Copyright (c) 2004 Alexander Djourik. All rights reserved.

FILE: 01. Leonard Cohen - Nevermind.flac Size: 25903698 Hash: D005313A91257E0DF3D5EE98DFED0CBE Accuracy: -m8 Conclusion: CDDA 100% Signature: 36930E82A0CF1C62835A7D6D78E51E20EBF24C95FILE: 02. Lera Lynn - The Only Thing Worth Fighting For.flac Size: 15441066 Hash: DF1CF17A9E15350B5BB155A977A46D8B Accuracy: -m8 Conclusion: CDDA 100% Signature: 0CD27BE4AF3477EB4C12D9392FE36BB610380E90FILE: 03. Nick Cave - All The Gold In California.flac Size: 17476712 Hash: 342A6B7FDA9D1CCD78FF3BA79DBAC3CB Accuracy: -m8 Conclusion: CDDA 100% Signature: 099470E8F551BEC08D4A90522C21397B6DCE0A31FILE: 04. Lera Lynn - Lately.flac Size: 26136431 Hash: 1F0EC823420E29CF25D472067A3F8CCB Accuracy: -m8 Conclusion: CDDA 100% Signature: 08A5AA677A873405C7313630A31B9B6410D458B6FILE: 05. John Paul White - What A Way To Go.flac Size: 17971901 Hash: DD1E98DE9B4FC4780CB7F17D1890A033 Accuracy: -m8 Conclusion: CDDA 99% Signature: EAE59D51F0A913A41667401C41EA5DD09399828DFILE: 06. Lera Lynn - My Least Favorite Life.flac Size: 17630422 Hash: F7D0C92E827B8EAA7D5C663D8D8C0BE9 Accuracy: -m8 Conclusion: CDDA 100% Signature: E35A42ABBAF229D487814A1F2D3CBBEA8ED757A7FILE: 07. The Handsome Family - Far From Any Road.flac Size: 19232036 Hash: 55027322D922C6F2DFE03727D47FB7D0 Accuracy: -m8 Conclusion: CDDA 100% Signature: DAF52036B6850FC8ECB911315126E36B07F0E521FILE: 08. Alexandra Semitone - Risk (Demo).flac Size: 24814011 Hash: 85D3B6DFB0519557B38BB36ADCA83D61 Accuracy: -m8 Conclusion: CDDA 100% Signature: 0D6EF1409012514C48731307EB75B3A5143DBD31FILE: 09. Cassandra Wilson - Sign Of The Judgment.flac Size: 22958136 Hash: 7E398225C80C765A9FAD6C49C819547C Accuracy: -m8 Conclusion: CDDA 100% Signature: 5FBB431FA85A6424CA133F6C619AA8AAB07BA94DFILE: 10. Bob Dylan - Rocks And Gravel.flac Size: 14352009 Hash: 3FE370B9659DE3467691A889F1262A12 Accuracy: -m8 Conclusion: CDDA 100% Signature: FB4239002700386ED2FE7F313037FBE1C73C240EFILE: 11. Lera Lynn - A Church In Ruins.flac Size: 13646714 Hash: 9DCAA0BE9BCB823C329F3FCB5AA31CE9 Accuracy: -m8 Conclusion: CDDA 100% Signature: E2BF47090707040638EC647DD2E3E54EE1A7386BFILE: 12. Bonnie Prince Billy - Intentional Injury.flac Size: 12847199 Hash: 66E6BD3EBA784D9EB91B79909EDBFC88 Accuracy: -m8 Conclusion: CDDA 100% Signature: 514A0D6A6627EC602E60130E9E62F6EBFB53B2D1FILE: 13. Lera Lynn - It Only Takes One Shot.flac Size: 14083884 Hash: 345DFEA1334A1EE670CA7D560FCE3AB8 Accuracy: -m8 Conclusion: CDDA 100% Signature: F1E5B76BA5DFAA8FC11C67D8E74D46D8D0368BC5FILE: 14. S.I. Istwa - The Angry River.flac Size: 19149407 Hash: A813D8EC6445E252C1579540EF594845 Accuracy: -m8 Conclusion: CDDA 100% Signature: 1F26AE145BB86FFFF1CC4A3FF914D17E9C119CB7
foobar2000 1.3.8 / Dynamic Range Meter 1.1.1log date: 2015-08-16 14:50:10

--------------------------------------------------------------------------------Analyzed: Alexandra Semitone / True Detective (1) Bob Dylan / True Detective (2) Bonnie "Prince" Billy / True Detective (3) Cassandra Wilson / True Detective (4) John Paul White / True Detective (5) Leonard Cohen / True Detective (6) Lera Lynn / True Detective (7-11) Nick Cave / True Detective (12) S.I. Istwa / True Detective (13) The Handsome Family / True Detective (14)--------------------------------------------------------------------------------

DR Peak RMS Duration Track--------------------------------------------------------------------------------DR9 0.00 dB -10.08 dB 4:00 08-Risk (Demo)DR9 0.00 dB -10.14 dB 2:27 10-Rocks And GravelDR11 -0.26 dB -13.19 dB 2:25 12-Intentional InjuryDR10 0.00 dB -11.63 dB 4:01 09-Sign Of The JudgmentDR9 -0.30 dB -12.55 dB 3:06 05-What A Way To GoDR10 -0.15 dB -11.60 dB 4:40 01-NevermindDR9 -0.13 dB -12.61 dB 3:17 02-The Only Thing Worth Fighting ForDR8 0.00 dB -9.20 dB 3:57 04-LatelyDR12 -0.02 dB -15.79 dB 3:30 06-My Least Favorite LifeDR13 -0.20 dB -16.68 dB 2:52 11-A Church In RuinsDR11 -0.29 dB -14.52 dB 2:53 13-It Only Takes One ShotDR7 0.00 dB -8.59 dB 2:26 03-All The Gold In CaliforniaDR8 0.00 dB -9.48 dB 2:55 14-The Angry RiverDR8 0.00 dB -10.37 dB 2:49 07-Far From Any Road--------------------------------------------------------------------------------

Number of tracks: 14Official DR value: DR9

Samplerate: 44100 HzChannels: 2Bits per sample: 16Bitrate: 898 kbpsCodec: FLAC================================================================================


Трекер:  [ 30-Авг-2015 10:00 ]

  

Скачать .torrent

Размер .torrent файла 7 KB


Размер: 253 MB
Хэш (hash) релиза: 8f396226e4fbdd28b7bdc41104dec35183dae21c

Еще никто не оставлял запись к записи скачать торрент . Будь первым!

!Обратная связь