Скачать через торрент музыку бесплатно без регистрации torrent

Если у вас наблюдаются проблемы со скриншотами, переходом по ссылками, скачиванием торрентов - проблемы в блокировщике рекламы AdBlock. #хорошегоДня!


Статистика раздачи
Размер:  357 MB   |    Зарегистрирован:  2 года   |    .torrent скачан:  25 раз   |   
Раздают:  1  
   
Загрузка...
 
Автор Сообщение

Galfimbul

avatar Galfimbul


Фантастическая четверка - Fantastic Four

Название альбома: The Fantastic Four (Original Motion Picture Soundtrack)
Жанр: Score
Композитор: Marco Beltrami & Philip Glass
Год выпуска диска: 2015
Издатель (лейбл): Sony Classical
Аудиокодек: FLAC (*.flac)
Тип рипа: tracks
Битрейт аудио: lossless
Продолжительность: 01:11:59
Источник (релизер): WRZMusic (Wilhelm Reich)
Наличие сканов в содержимом раздачи: да



Треклист:
01. Fantastic Four Prelude (5:17)
02. The Garage (2:27)
03. The Unveiling (1:04)
04. Baxter (2:45)
05. "All My Faith" (0:45)
06. The Lab (0:53)
07. Meeting of the Minds (0:53)
08. It Begins (0:34)
09. Building the Future (2:50)
10. Launch One (3:11)
11. Neil Armstrong (2:57)
12. Maiden Voyage (1:57)
13. Footprints (4:00)
14. "Run" (2:39)
15. Ben's Drop (2:27)
16. Real World Applications (1:39)
17. Under Pressure (1:02)
18. The Search (1:59)
19. "You're Going to Like This One" (1:10)
20. Father and Son (1:50)
21. Return (2:42)
22. He's Awake (6:55)
23. Pursuit (3:02)
24. Strength in Numbers (5:17)
25. End Titles (6:15)
26. Another Body Digital (feat. EL-P) (5:30)
-----------------------

DON'T MODIFY THIS FILE

-----------------------

PERFORMER: auCDtect Task Manager, ver. 1.5.1RC6 build 1.5.1.7Copyright (c) 2008-2010 y-soft. All rights reservedhttp://y-soft.org

ANALYZER: auCDtect: CD records authenticity detector, version 0.8.2Copyright (c) 2004 Oleg Berngardt. All rights reserved.Copyright (c) 2004 Alexander Djourik. All rights reserved.

FILE: 01. Fantastic Four Prelude.flac Size: 24737951 Hash: 76F7BB49D2A13D53E9BAEF7A304B4DBD Accuracy: -m8 Conclusion: CDDA 100% Signature: 1C36971267852AFD2516467A3BA83DBDB5C44F87FILE: 02. The Garage.flac Size: 10733456 Hash: 5A0E97F71276F63005158581CA3DE701 Accuracy: -m8 Conclusion: CDDA 100% Signature: B5674ED25D001463BBC0A5268D30BFF49A22E59BFILE: 03. The Unveiling.flac Size: 4506711 Hash: 0A59DD855DDF054F8394E442586D013F Accuracy: -m8 Conclusion: CDDA 100% Signature: E63F4570743FA766286F06946EE78F3B2521F1A6FILE: 04. Baxter.flac Size: 12437944 Hash: 512D2A5016A2EB72E6C3FE15AC9086E5 Accuracy: -m8 Conclusion: CDDA 100% Signature: 7FD1A350C3317928C00B8AF3BB115E966C171219FILE: 05. ''All My Faith''.flac Size: 3579671 Hash: 63A822CF63F89348B44B8737605A2ECD Accuracy: -m8 Conclusion: CDDA 100% Signature: 88EAE7588CC85A090CA64E1E2B108E59DD2B6C37FILE: 06. The Lab.flac Size: 4101379 Hash: B79E054E2B942E9E64884A2509AD0E10 Accuracy: -m8 Conclusion: CDDA 100% Signature: 92841C14CE6A3D622F0BA9D5CB6EB32753777444FILE: 07. Meeting of the Minds.flac Size: 4506083 Hash: 61B1AC880BC7A8096BF1532D9A06E48C Accuracy: -m8 Conclusion: CDDA 100% Signature: 02A6C5F1DAAA4876AA1313D045163D6AEE61E2E7FILE: 08. It Begins.flac Size: 2841895 Hash: 52752C8FA728B26D7F34613617DF2BE2 Accuracy: -m8 Conclusion: CDDA 100% Signature: B11A616210C29CAA17B95BB1414F0AE6EFE7986AFILE: 09. Building the Future.flac Size: 14485347 Hash: 8F7C9C0B611618E80F8CFD098E03C2D1 Accuracy: -m8 Conclusion: CDDA 100% Signature: 3F6B1F092E203D57D543FF1B1CE497701FAF9C52FILE: 10. Launch One.flac Size: 15738338 Hash: C6F4A53287FC2EE056BD6D4D4106DA31 Accuracy: -m8 Conclusion: CDDA 100% Signature: CE778A43A73C7BDF49C302B7AB7EE03E94A7DE75FILE: 11. Neil Armstrong.flac Size: 13837439 Hash: 9EFE1615429A65CFA766FBDDF7DFDEE5 Accuracy: -m8 Conclusion: CDDA 100% Signature: DFFF892C398EAF99DC15F926734E7DC010DF93EBFILE: 12. Maiden Voyage.flac Size: 9735336 Hash: 54F9002CFED1CBA6447B9160C90804E2 Accuracy: -m8 Conclusion: CDDA 100% Signature: B8B23E0B3C23B2A94DABBB4EFA304C2D084653F2FILE: 13. Footprints.flac Size: 19398794 Hash: 76B80295B4EFF5646E70823DC5B9CDBD Accuracy: -m8 Conclusion: CDDA 100% Signature: 126CE6D61CFEBEB093A83BEDB2342D843BFE0178FILE: 14. ''Run''.flac Size: 16084143 Hash: 519D3CF409D371EB6C9151B82B6958E1 Accuracy: -m8 Conclusion: CDDA 100% Signature: 07118570948F80EC2DC637977814E65ED46B1DFFFILE: 15. Ben's Drop.flac Size: 11230383 Hash: 492575BBD706933953C7F0A3550DA82E Accuracy: -m8 Conclusion: CDDA 100% Signature: 409D629A8B236E42FC28EA3C045CCFE6F14F1610FILE: 16. Real World Applications.flac Size: 7784062 Hash: 0B73489D05C371EFDB7D7CF3C5AB22D0 Accuracy: -m8 Conclusion: CDDA 100% Signature: 77F87036015A6EE2662FA7C9CD3866E3DA3BAAB1FILE: 17. Under Pressure.flac Size: 4729728 Hash: 3D0B3AD4AD9CFADF49072F831966DC2D Accuracy: -m8 Conclusion: CDDA 100% Signature: 909567FC356AF426624424B3EEF25D4A7976284FFILE: 18. The Search.flac Size: 8889887 Hash: 51611134E5E00261250FD7F444F5BBEE Accuracy: -m8 Conclusion: CDDA 100% Signature: 911361294337659B3BF78C1883C39D452F288A61FILE: 19. ''You're Going to Like This One''.flac Size: 6511571 Hash: 261C7DB3B2B0C5A04C797C2A3DFE71F5 Accuracy: -m8 Conclusion: CDDA 100% Signature: BB08113B4DF13B96AEE242DF0F9085EACD6C4267FILE: 20. Father and Son.flac Size: 9279945 Hash: 5060A0EFFD73023121C11869E5D4219C Accuracy: -m8 Conclusion: CDDA 99% Signature: E1E22B4E10F4E3D2A1C9D3F57AD2573DF6AE36A5FILE: 21. Return.flac Size: 12786974 Hash: 1719E5F9687EB67280BF810A57797FFF Accuracy: -m8 Conclusion: CDDA 100% Signature: 871B09F27121C07197371B473CE97887650004B9FILE: 22. He's Awake.flac Size: 36682395 Hash: 34BD8E18E342327AFEAB7A433A0B5282 Accuracy: -m8 Conclusion: CDDA 100% Signature: 3ECCEE1BC5D760839713A93C80EF0276896D251FFILE: 23. Pursuit.flac Size: 18902160 Hash: 04D4622B5CC47F96511AC1F82FEB878D Accuracy: -m8 Conclusion: CDDA 100% Signature: ABAC9A666E30B2A8E4631E710FBD27B09EEEED70FILE: 24. Strength in Numbers.flac Size: 32901881 Hash: A685C5D2AC9C43FA65EC804C998E96B0 Accuracy: -m8 Conclusion: CDDA 100% Signature: D8D780F2AFF9561775C607F358137B3DCDC05C34FILE: 25. End Titles.flac Size: 30002998 Hash: 5EE91249CF2F124049A7D1085CDB1857 Accuracy: -m8 Conclusion: CDDA 100% Signature: F03CC7F8A804AB31037ED54B89AAE7C00C5415C5FILE: 26. Another Body Digital (feat. EL-P).flac Size: 37031846 Hash: C2288E60E98F49017C1FDE799427F1A1 Accuracy: -m8 Conclusion: CDDA 100% Signature: 64C46770A17ECE7F2B11A68A1A4AF3649F49069B
foobar2000 1.3.8 / Dynamic Range Meter 1.1.1log date: 2015-08-16 19:49:52

--------------------------------------------------------------------------------Analyzed: Marco Beltrami / Fantastic Four--------------------------------------------------------------------------------

DR Peak RMS Duration Track--------------------------------------------------------------------------------DR9 -0.16 dB -15.32 dB 5:17 01-Fantastic Four PreludeDR13 -0.16 dB -20.44 dB 2:27 02-The GarageDR9 -6.54 dB -22.34 dB 1:04 03-The UnveilingDR12 -0.16 dB -17.54 dB 2:45 04-BaxterDR10 -0.16 dB -16.94 dB 0:45 05-"All My Faith"DR9 -2.92 dB -18.19 dB 0:53 06-The LabDR9 -4.10 dB -18.61 dB 0:53 07-Meeting of the MindsDR8 -0.16 dB -14.30 dB 0:34 08-It BeginsDR10 -0.16 dB -15.06 dB 2:50 09-Building the FutureDR12 -0.16 dB -17.05 dB 3:11 10-Launch OneDR12 -0.16 dB -19.09 dB 2:57 11-Neil ArmstrongDR11 -0.16 dB -15.44 dB 1:57 12-Maiden VoyageDR10 -0.16 dB -16.22 dB 4:00 13-FootprintsDR8 -0.16 dB -12.04 dB 2:39 14-"Run"DR9 -0.16 dB -15.11 dB 2:27 15-Ben's DropDR11 -0.16 dB -17.06 dB 1:39 16-Real World ApplicationsDR9 -4.31 dB -18.78 dB 1:02 17-Under PressureDR13 -0.16 dB -17.31 dB 1:59 18-The SearchDR10 -0.16 dB -13.16 dB 1:10 19-"You're Going to Like This One"DR10 -0.16 dB -15.02 dB 1:50 20-Father and SonDR11 -0.16 dB -17.16 dB 2:42 21-ReturnDR9 -0.16 dB -13.74 dB 6:55 22-He's AwakeDR8 -0.16 dB -11.01 dB 3:02 23-PursuitDR8 -0.16 dB -11.26 dB 5:17 24-Strength in NumbersDR10 -0.16 dB -14.79 dB 6:15 25-End TitlesDR7 -0.07 dB -9.28 dB 5:30 26-Another Body Digital (feat. EL-P)--------------------------------------------------------------------------------

Number of tracks: 26Official DR value: DR10

Samplerate: 44100 HzChannels: 2Bits per sample: 16Bitrate: 894 kbpsCodec: FLAC================================================================================


Трекер:  [ 30-Авг-2015 10:00 ]

  

Скачать .torrent

Размер .torrent файла 10 KB


Размер: 357 MB
Хэш (hash) релиза: 773723735c2c34cadb6cbb25d539c892daebdac7

Еще никто не оставлял запись к записи скачать торрент . Будь первым!

!Обратная связь