Скачать через торрент музыку Звёздные Врата: Атлантида Stargate: Atlantis бесплатно без регистрации torrent

Если у вас наблюдаются проблемы со скриншотами, переходом по ссылками, скачиванием торрентов - проблемы в блокировщике рекламы AdBlock. #хорошегоДня!


Статистика раздачи
Размер:  195 MB   |    Зарегистрирован:  6 лет 5 месяцев   |    .torrent скачан:  56 раз   |   
Раздают:  1  
   
Загрузка...
 
Автор Сообщение

Galfimbul

avatar Galfimbul


Stargate: Atlantis
Звёздные Врата: Атлантида
Music by Joel Goldsmith
Жанр: Score
Год выпуска диска: 2005
Производитель диска: USA, Varese Sarabande
Аудио кодек: FLAC
Тип рипа: tracks+.cue
Битрейт аудио: lossless
Продолжительность: 00:42:18

Трэклист:
01. Main Title 1:06
02. Atlantis Takes Flight 1:44
03. Rogue Drone 2:32
04. Messages 2:33
05. Weir Speaks 2:32
06. Gate To Atlantis 2:30
07. Atlantis Wakes 3:34
08. Tayla's Village 1:16
09. Wraith Abductions 3:22
10. The Hologram 2:18
11. The Rising 3:44
12. Wraith Lair 5:24
13. Dart Battle 3:31
14. The Rescue 2:38
15. O'Neill Inbound 1:26
16. Our New Home, Atlantis 2:01
Exact Audio Copy V0.99 prebeta 4 from 23. January 2008 
EAC extraction logfile from 25. August 2008, 16:04
Joel Goldsmith / Stargate: Atlantis
Used drive : LITE-ON LTR-52246S Adapter: 2 ID: 1
Read mode : Secure
Utilize accurate stream : Yes
Defeat audio cache : Yes
Make use of C2 pointers : No
Read offset correction : 6
Overread into Lead-In and Lead-Out : No
Fill up missing offset samples with silence : Yes
Delete leading and trailing silent blocks : No
Null samples used in CRC calculations : Yes
Used interface : Native Win32 interface for Win NT & 2000
Gap handling : Appended to previous track
Used output format : User Defined Encoder
Selected bitrate : 768 kBit/s
Quality : High
Add ID3 tag : No
Command line compressor : C:\Program Files\Exact Audio Copy\FLAC\FLAC.EXE
Additional command line options : -V -8 -T "artist=%a" -T "title=%t" -T "album=%g" -T "date=%y" -T "tracknumber=%n" -T "genre=%m" %s
TOC of the extracted CD
Track | Start | Length | Start sector | End sector
---------------------------------------------------------
1 | 0:00.00 | 1:06.35 | 0 | 4984
2 | 1:06.35 | 1:44.10 | 4985 | 12794
3 | 2:50.45 | 2:32.20 | 12795 | 24214
4 | 5:22.65 | 2:33.45 | 24215 | 35734
5 | 7:56.35 | 2:32.07 | 35735 | 47141
6 | 10:28.42 | 2:30.55 | 47142 | 58446
7 | 12:59.22 | 3:34.23 | 58447 | 74519
8 | 16:33.45 | 1:16.70 | 74520 | 80289
9 | 17:50.40 | 3:22.55 | 80290 | 95494
10 | 21:13.20 | 2:18.25 | 95495 | 105869
11 | 23:31.45 | 3:44.55 | 105870 | 122724
12 | 27:16.25 | 5:24.07 | 122725 | 147031
13 | 32:40.32 | 3:31.53 | 147032 | 162909
14 | 36:12.10 | 2:38.22 | 162910 | 174781
15 | 38:50.32 | 1:26.55 | 174782 | 181286
16 | 40:17.12 | 2:01.60 | 181287 | 190421
Track 1
Filename I:\music\Joel Goldsmith - 2005 - Stargate- Atlantis\01 - Main Title.wav
Pre-gap length 0:00:02.00
Peak level 99.9 %
Track quality 100.0 %
Test CRC 6325F909
Copy CRC 6325F909
Accurately ripped (confidence 2) [DE03E5AD]
Copy OK
Track 2
Filename I:\music\Joel Goldsmith - 2005 - Stargate- Atlantis\02 - Atlantis Takes Flight.wav
Pre-gap length 0:00:02.15
Peak level 98.6 %
Track quality 100.0 %
Test CRC 4DF8ADAD
Copy CRC 4DF8ADAD
Accurately ripped (confidence 2) [AE2218AD]
Copy OK
Track 3
Filename I:\music\Joel Goldsmith - 2005 - Stargate- Atlantis\03 - Rogue Drone.wav
Pre-gap length 0:00:03.05
Peak level 94.6 %
Track quality 100.0 %
Test CRC 28054244
Copy CRC 28054244
Accurately ripped (confidence 2) [D61DF046]
Copy OK
Track 4
Filename I:\music\Joel Goldsmith - 2005 - Stargate- Atlantis\04 - Messages.wav
Pre-gap length 0:00:02.68
Peak level 86.1 %
Track quality 100.0 %
Test CRC 8A63DAEA
Copy CRC 8A63DAEA
Accurately ripped (confidence 2) [EC09FF7E]
Copy OK
Track 5
Filename I:\music\Joel Goldsmith - 2005 - Stargate- Atlantis\05 - Weir Speaks.wav
Pre-gap length 0:00:03.30
Peak level 76.7 %
Track quality 99.9 %
Test CRC 0778EDDC
Copy CRC 0778EDDC
Accurately ripped (confidence 2) [80C045EE]
Copy OK
Track 6
Filename I:\music\Joel Goldsmith - 2005 - Stargate- Atlantis\06 - Gate to Atlantis.wav
Pre-gap length 0:00:03.15
Peak level 98.9 %
Track quality 99.9 %
Test CRC 2D088849
Copy CRC 2D088849
Accurately ripped (confidence 2) [3C61FA36]
Copy OK
Track 7
Filename I:\music\Joel Goldsmith - 2005 - Stargate- Atlantis\07 - Atlantis Wakes.wav
Pre-gap length 0:00:01.67
Peak level 57.3 %
Track quality 100.0 %
Test CRC 08927906
Copy CRC 08927906
Accurately ripped (confidence 2) [580A2909]
Copy OK
Track 8
Filename I:\music\Joel Goldsmith - 2005 - Stargate- Atlantis\08 - Tayla's Village.wav
Pre-gap length 0:00:01.73
Peak level 59.6 %
Track quality 100.0 %
Test CRC 18FA5DD7
Copy CRC 18FA5DD7
Accurately ripped (confidence 2) [1CBD3A86]
Copy OK
Track 9
Filename I:\music\Joel Goldsmith - 2005 - Stargate- Atlantis\09 - Wraith Abductions.wav
Pre-gap length 0:00:03.23
Peak level 99.9 %
Track quality 100.0 %
Test CRC 4742921E
Copy CRC 4742921E
Accurately ripped (confidence 2) [0F8EB8C2]
Copy OK
Track 10
Filename I:\music\Joel Goldsmith - 2005 - Stargate- Atlantis\10 - The Hologram.wav
Pre-gap length 0:00:02.68
Peak level 32.6 %
Track quality 100.0 %
Test CRC 03DE59BD
Copy CRC 03DE59BD
Accurately ripped (confidence 2) [669CBC4A]
Copy OK
Track 11
Filename I:\music\Joel Goldsmith - 2005 - Stargate- Atlantis\11 - The Rising.wav
Pre-gap length 0:00:02.35
Peak level 98.8 %
Track quality 100.0 %
Test CRC 7576A2D6
Copy CRC 7576A2D6
Accurately ripped (confidence 2) [67C2AE29]
Copy OK
Track 12
Filename I:\music\Joel Goldsmith - 2005 - Stargate- Atlantis\12 - Wraith Lair.wav
Pre-gap length 0:00:03.40
Peak level 99.9 %
Track quality 99.9 %
Test CRC 763FFB3E
Copy CRC 763FFB3E
Accurately ripped (confidence 2) [BF50393E]
Copy OK
Track 13
Filename I:\music\Joel Goldsmith - 2005 - Stargate- Atlantis\13 - Dart Battle.wav
Pre-gap length 0:00:01.10
Peak level 99.9 %
Track quality 100.0 %
Test CRC 34CBF9B7
Copy CRC 34CBF9B7
Accurately ripped (confidence 2) [B2F69F5A]
Copy OK
Track 14
Filename I:\music\Joel Goldsmith - 2005 - Stargate- Atlantis\14 - The Rescue.wav
Pre-gap length 0:00:02.43
Peak level 80.4 %
Track quality 100.0 %
Test CRC C9B2898D
Copy CRC C9B2898D
Accurately ripped (confidence 2) [B893D48C]
Copy OK
Track 15
Filename I:\music\Joel Goldsmith - 2005 - Stargate- Atlantis\15 - O'Neill Inbound.wav
Pre-gap length 0:00:02.45
Peak level 96.9 %
Track quality 100.0 %
Test CRC 9AF618E8
Copy CRC 9AF618E8
Accurately ripped (confidence 2) [77C8D9AD]
Copy OK
Track 16
Filename I:\music\Joel Goldsmith - 2005 - Stargate- Atlantis\16 - Our New Home, Atlantis.wav
Pre-gap length 0:00:01.60
Peak level 82.0 %
Track quality 100.0 %
Test CRC 94BEB53C
Copy CRC 94BEB53C
Accurately ripped (confidence 2) [1476A085]
Copy OK
All tracks accurately ripped
No errors occurred
End of status report


Трекер:  [ 08-Апр-2011 12:30 ]

  

Скачать .torrent

Размер .torrent файла 9 KB


Размер: 195 MB
Хэш (hash) релиза: 169e5f5a8f6321432fed701ebcdfe55caeda66e3

Торренты, похожие на Звёздные Врата: Атлантида Stargate: Atlantis скачать торрент

Форум Название Автор Размер S L Добавлен
Саундтреки к фильмам и мультфильмам (mp3) ·· (Score) Звёздные Врата: Атлантида / Stargate: Atlantis (Joel Goldsmith) - 2005, MP3, 192 kbps Galfimbul 6097218758 MB 0 0 1292265889

21:44

13-Дек-10

AqvaGen

Огромное спасибо :)

Хотите добавить комментарий к записи скачать торрент Звёздные Врата: Атлантида Stargate: Atlantis

!Обратная связь