Скачать порно через торрент [DominicFord.com] Fire Island: House Boy Ep.2 - Seth Knight & Alex Braxton UnionPeer.org бесплатно онлайн HD качество

Скачать новое порно 2015, 2014 новинки через торрент UnionPeer.org

Порно торрент бесплатно ЮнионПир.орг

Если у вас наблюдаются проблемы со скриншотами, переходом по ссылками, скачиванием торрентов - проблемы в блокировщике рекламы AdBlock. #хорошегоДня!


Статистика раздачи
Размер:  657 MB   |    Зарегистрирован:  2 года 3 месяца   |    .torrent скачан:  12 раз   |   
Раздают:  1   Качают:  1  
   
Загрузка...
 
Автор Сообщение

Galfimbul

avatar Galfimbul




[DominicFord.com] Fire Island: House Boy Ep.2 - Seth Knight & Alex Braxton


Имя актера: Alex Braxton, Seth Knight
Подсайт и сайт: DominicFord.com

Год производства: 2015 г.
Жанр: Anal Sex, Blowjob, Cumshots, Interview, Kissing, Masturbation, Muscles, Outdoors, Rimming, Tattoos, Twink.
Продолжительность: 00:22:05

Описание: In Episode 2 of FIRE ISLAND: HOUSE BOY, real-life boyfriends Seth Knight and Alex Braxton apply for the job of houseboys together. When the owner seems them he tells them they have to audition together for the job. They have a passionate make-out session and then fuck all over the back deck: by the shower, by the pool and in the gym (with pink weights!).

Доп. информация: официальный релиз - 23.07.2015

Тип HD видео: 1012p
Формат видео: MP4
Видео: AVC, 1920x1012 (1.897), 24.000 fps, 3 976 Kbps (0.085 bit/pixel)
Аудио: AAC LC, 48.0 KHz, 2 ch, 126 Kbps
General
Complete name : [DominicFord]FireIsland_HouseBoy_Ep.2-SethKnight_AlexBraxton-1012p.mp4
Format : MPEG-4
Format profile : Base Media / Version 2
Codec ID : mp42
File size : 657 MiB
Duration : 22mn 5s
Overall bit rate : 4 154 Kbps
Encoded date : UTC 2015-07-23 18:40:44
Tagged date : UTC 2015-07-23 18:40:44

Video
ID : 2
Format : AVC
Format/Info : Advanced Video Codec
Format profile : High@L4.0
Format settings, CABAC : Yes
Format settings, ReFrames : 3 frames
Format settings, GOP : M=1, N=72
Codec ID : avc1
Codec ID/Info : Advanced Video Coding
Duration : 22mn 5s
Bit rate : 3 976 Kbps
Maximum bit rate : 15.2 Mbps
Width : 1 920 pixels
Height : 1 012 pixels
Display aspect ratio : 1.897
Frame rate mode : Constant
Frame rate : 24.000 fps
Color space : YUV
Chroma subsampling : 4:2:0
Bit depth : 8 bits
Scan type : Progressive
Bits/(Pixel*Frame) : 0.085
Stream size : 633 MiB (96%)
Writing library : x264 core 142 r2497M b617c36
Encoding settings : cabac=1 / ref=3 / deblock=1:0:0 / analyse=0x3:0x113 / me=umh / subme=6 / psy=1 / psy_rd=1.00:0.00 / mixed_ref=1 / me_range=16 / chroma_me=1 / trellis=1 / 8x8dct=1 / cqm=0 / deadzone=21,11 / fast_pskip=1 / chroma_qp_offset=-2 / threads=2 / lookahead_threads=1 / sliced_threads=0 / nr=0 / decimate=1 / interlaced=0 / bluray_compat=0 / constrained_intra=0 / bframes=0 / weightp=2 / keyint=452 / keyint_min=19 / scenecut=40 / intra_refresh=0 / rc_lookahead=40 / rc=abr / mbtree=1 / bitrate=3976 / ratetol=1.0 / qcomp=0.60 / qpmin=0 / qpmax=69 / qpstep=4 / vbv_maxrate=22500 / vbv_bufsize=29992 / nal_hrd=none / filler=0 / ip_ratio=1.60 / aq=1:1.00
Language : English
Encoded date : UTC 2015-07-23 18:40:44
Tagged date : UTC 2015-07-23 18:40:44

Audio
ID : 1
Format : AAC
Format/Info : Advanced Audio Codec
Format profile : LC
Codec ID : 40
Duration : 22mn 5s
Bit rate mode : Constant
Bit rate : 126 Kbps
Channel(s) : 2 channels
Channel positions : Front: L R
Sampling rate : 48.0 KHz
Compression mode : Lossy
Stream size : 20.2 MiB (3%)
Language : English
Encoded date : UTC 2015-07-23 18:40:44
Tagged date : UTC 2015-07-23 18:40:44

what?


Трекер:  [ 16-Авг-2015 12:00 ]

  

Скачать .torrent

Размер .torrent файла 13 KB


Размер: 657 MB
Хэш (hash) релиза: 7b4741ea229402acef0f9e847e1e58d8818b6bba

Еще никто не оставлял запись к записи скачать торрент [DominicFord.com] Fire Island: House Boy Ep.2 - Seth Knight & Alex Braxton . Будь первым!

!Обратная связь