Скачать порно через торрент [DominicFord.com] Bryce Evans Pounds Duncan Black UnionPeer.org бесплатно онлайн HD качество

Скачать новое порно 2015, 2014 новинки через торрент UnionPeer.org

Порно торрент бесплатно ЮнионПир.орг

Если у вас наблюдаются проблемы со скриншотами, переходом по ссылками, скачиванием торрентов - проблемы в блокировщике рекламы AdBlock. #хорошегоДня!


Статистика раздачи
Размер:  421 MB   |    Зарегистрирован:  2 года 2 месяца   |    .torrent скачан:  18 раз   |   
Раздают:  1  
   
Загрузка...
 
Автор Сообщение

Galfimbul

avatar Galfimbul




[DominicFord.com] Bryce Evans Pounds Duncan Black


Имя актера: Bryce Evans, Duncan Black
Подсайт и сайт: DominicFord.com

Год производства: 2015 г.
Жанр: Anal Sex, Blowjob, Kissing, Masturbation, Muscles, Tattoos.
Продолжительность: 00:18:17

Описание: Both Duncan Black and Bryce Evans started their porn careers at DominicFord.com. It''s only fitting that these two stars come back "home" and finally work with each other. And they couldn''t wait to do it. Get ready for an intense, sensual and amazing sex scene between these two Dominic Ford breakout stars!

Доп. информация: официальный релиз - 29.01.2015

Тип HD видео: 1080p
Формат видео: MP4
Видео: AVC, 1920x1080 (16:9), 29.970 fps, 3 114 Kbps (0.050 bit/pixel)
Аудио: AAC LC, 48.0 KHz, 2 ch, 96.0 Kbps
General
Complete name : [DominicFord] Bryce Evans Pounds Duncan Black - 1080p.mp4
Format : MPEG-4
Format profile : Base Media
Codec ID : isom
File size : 421 MiB
Duration : 18mn 17s
Overall bit rate : 3 218 Kbps
Writing application : Lavf56.4.101

Video
ID : 1
Format : AVC
Format/Info : Advanced Video Codec
Format profile : High@L4.0
Format settings, CABAC : Yes
Format settings, ReFrames : 4 frames
Codec ID : avc1
Codec ID/Info : Advanced Video Coding
Duration : 18mn 17s
Bit rate : 3 114 Kbps
Width : 1 920 pixels
Height : 1 080 pixels
Display aspect ratio : 16:9
Frame rate mode : Constant
Frame rate : 29.970 fps
Color space : YUV
Chroma subsampling : 4:2:0
Bit depth : 8 bits
Scan type : Progressive
Bits/(Pixel*Frame) : 0.050
Stream size : 407 MiB (97%)
Writing library : x264 core 142 r2455 021c0dc
Encoding settings : cabac=1 / ref=3 / deblock=1:0:0 / analyse=0x3:0x113 / me=hex / subme=7 / psy=1 / psy_rd=1.00:0.00 / mixed_ref=1 / me_range=16 / chroma_me=1 / trellis=1 / 8x8dct=1 / cqm=0 / deadzone=21,11 / fast_pskip=1 / chroma_qp_offset=-2 / threads=12 / lookahead_threads=2 / sliced_threads=0 / nr=0 / decimate=1 / interlaced=0 / bluray_compat=0 / constrained_intra=0 / bframes=3 / b_pyramid=2 / b_adapt=1 / b_bias=0 / direct=1 / weightb=1 / open_gop=0 / weightp=2 / keyint=250 / keyint_min=25 / scenecut=40 / intra_refresh=0 / rc_lookahead=40 / rc=crf / mbtree=1 / crf=24.0 / qcomp=0.60 / qpmin=0 / qpmax=69 / qpstep=4 / ip_ratio=1.40 / aq=1:1.00

Audio
ID : 2
Format : AAC
Format/Info : Advanced Audio Codec
Format profile : LC
Codec ID : 40
Duration : 18mn 17s
Duration_LastFrame : -4ms
Bit rate mode : Constant
Bit rate : 96.0 Kbps
Channel(s) : 2 channels
Channel positions : Front: L R
Sampling rate : 48.0 KHz
Compression mode : Lossy
Stream size : 12.6 MiB (3%)

<html>
<head><title>502 Bad Gateway</title></head>
<body bgcolor="white">
<center><h1>502 Bad Gateway</h1></center>
<hr><center>nginx/1.7.1</center>
</body>
</html>


Трекер:  [ 16-Авг-2015 12:00 ]

  

Скачать .torrent

Размер .torrent файла 17 KB


Размер: 421 MB
Хэш (hash) релиза: 02f93f211146bac5617e670795b8efc3c64677da

Еще никто не оставлял запись к записи скачать торрент [DominicFord.com] Bryce Evans Pounds Duncan Black . Будь первым!

!Обратная связь