Скачать порно через торрент Up And Cummers 44 Начать И Кончить 44 UnionPeer.org бесплатно онлайн HD качество

Скачать новое порно 2015, 2014 новинки через торрент UnionPeer.org

Порно торрент бесплатно ЮнионПир.орг

Если у вас наблюдаются проблемы со скриншотами, переходом по ссылками, скачиванием торрентов - проблемы в блокировщике рекламы AdBlock. #хорошегоДня!


Статистика раздачи
Размер:  1.81 GB   |    Зарегистрирован:  2 года 2 месяца   |    .torrent скачан:  360 раз   |   
Раздают:  1  
   
Загрузка...
 
Автор Сообщение

Galfimbul

avatar Galfimbul


Up And Cummers 44 | Начать И Кончить 44

[url=...1088220] [/url]
Год производства: 1997 г.
Страна: США | USA
Жанр: Gonzo, All Sex
Продолжительность: 02:20:17
Язык: Английский | English

Режиссер: Randy West
Студия: Evil Angel

В ролях:
Actresses
Brooke Lynne [Facial]
Jacklyn Lick [Anal Facial DP]
[url=...1088220]Olivia del Rio[/url] [Anal Facial]
Tyra Olsen [Facial]
NonSex Performers
Katie Gold
[url=...1039925]Shay Sweet[/url]

Actors
Alex Sanders
Randy West

Описание: 44-я часть с участием несравненных секс-бомб!

Scene Breakdowns:
Scene 1. Brooke Lynne, Randy West
Scene 2. Jacklyn Lick, Alex Sanders, Randy West
Scene 3. [url=...1088220]Olivia del Rio[/url], Randy West
Scene 4. Tyra Olsen, Randy West
Scene 5. Katie Gold, Shay Sweet
General
Format : Windows Media
File size : 1.81 GiB
Duration : 2h 20mn
Overall bit rate mode : Constant
Overall bit rate : 1 848 Kbps
Maximum Overall bit rate : 2 033 Kbps
Encoded date : UTC 2010-12-22 19:18:29.190
Video #2
ID : 2
Format : VC-1
Format profile : MP@ML
Codec ID : WMV3
Codec ID/Info : Windows Media Video 9
Codec ID/Hint : WMV3
Description of the codec : VC-1 - VC-1 Simple/Main Profile
Duration : 2h 20mn
Bit rate mode : Constant
Bit rate : 1 950 Kbps
Width : 720 pixels
Height : 480 pixels
Display aspect ratio : 1.500
Frame rate : 29.970 fps
Standard : NTSC
Resolution : 24 bits
Scan type : Progressive
Bits/(Pixel*Frame) : 0.188
Stream size : 1.91 GiB (105%)
Language : en-us
Audio #1
ID : 1
Format : WMA2
Format profile : L2
Codec ID : 161
Codec ID/Info : Windows Media Audio 2
Duration : 2h 20mn
Bit rate mode : Constant
Bit rate : 64.0 Kbps
Channel(s) : 2 channels
Sampling rate : 48.0 KHz
Resolution : 16 bits
Stream size : 64.2 MiB (3%)
Language : en-us
Качество видео: DVDRip
Формат видео: WMV
Видео: VC-1, WMV3, 720x480 (3:2), 29.970 fps, 1 950 Kbps (0.188 bit/pixel)
Аудио: WMA, 48.0 KHz, 2 ch, 64.0 Kbps, CBR (English (US))

Трекер:  [ 13-Авг-2015 21:00 ]

  

Скачать .torrent

Размер .torrent файла 19 KB


Размер: 1.81 GB
Хэш (hash) релиза: f77eaf27677a3ceeb55805b86b5cf2c519c72cab

Еще никто не оставлял запись к записи скачать торрент Up And Cummers 44 Начать И Кончить 44 . Будь первым!

!Обратная связь