Скачать через торрент Охотник на вампиров Ди Kyuuketsuki Hunter D бесплатно Аниме Все серии на русском torrent

Если у вас наблюдаются проблемы со скриншотами, переходом по ссылками, скачиванием торрентов - проблемы в блокировщике рекламы AdBlock. #хорошегоДня!


Статистика раздачи
Размер:  12.77 GB   |    Зарегистрирован:  2 года 1 месяц   |    .torrent скачан:  51 раз   |   
Раздают:  1  
   
Загрузка...
 
Автор Сообщение

Galfimbul

avatar Galfimbul


Страна: Япония
Год выпуска: 1985 г.
Жанр: приключения, драма, ужасы
Тип: OVA
Продолжительность: 81 мин.
Режиссер: Асида Тоё
Студия: Ashi Productions
Перевод:
<ol class="post-ul">
русские субтитры от MC Entertainment
</ol>
Озвучка:
<ol class="post-ul">
многоголосая от MC Entertainment
многоголосая от Киномания
одноголосая (муж.) от Артём Толстобров
</ol>
Описание: В далеком будущем на Земле властвуют могущественные вампиры, поработившие человечество. Эти кровожадные монстры – бессмертные потомки древних аристократических родов – держат людей в страхе, наслаждаясь беспомощностью смертных и горячей кровью в их венах. Став жертвой "поцелуя бессмертия" ужасного графа Ли, отважная девушка Дорис обращается за помощью к странствующему охотнику на вампиров Ди. Она просит охотника отомстить графу и спасти родной город, живущий в зловещей тени его величественного замка. Дорис нанимает загадочного незнакомца, не зная, что на самом деле Ди – дампир, плод порочного союза вампира-аристократа и простолюдинки. Скрывая от всех свою зловещую тайну, неуязвимый охотник на вампиров бросает вызов коварным слугам графа – мутантам, оборотням и демонам, и его верным помощникам – юной графине Ламике и Рэю, мечтающему стать вампиром. Но Ди знает, что его самый опасный враг – сам граф, живущий на Земле уже десять тысяч лет...
Качество: BDRemux
Тип релиза: Без хардсаба
Формат видео: MKV
Наличие линковки: Нет
Видео: AVC (8bit), 1920x1080, 19927 kbps, 23,976 fps
Аудио RUS#1 (int.): AC3, 192 kbps, 48000 Hz, 2 ch - MC Entertainment
Аудио RUS#2 (int.): AC3, 192 kbps, 48000 Hz, 2 ch - Киномания
Аудио RUS#3 (int.): AC3, 192 kbps, 48000 Hz, 2 ch - Артём Толстобров
Аудио JAP: DTS-HD MA, 1844 kbps, 48000 Hz, 2 ch
Формат : Matroska
Версия формата : Version 4 / Version 2
Размер файла : 12,8 Гбайт
Продолжительность : 1 ч. 21 м.
Режим общего битрейта : Переменный
Общий поток : 22,3 Мбит/сек
Дата кодирования : UTC 2015-08-05 10:39:00
Программа кодирования : mkvmerge v7.1.0 ('Good Love') 32bit built on Jul 27 2014 12:59:18
Библиотека кодирования : libebml v1.3.0 + libmatroska v1.4.1

Видео
Идентификатор : 1
Формат : AVC
Формат/Информация : Advanced Video Codec
Профиль формата : High@L4.1
Параметр CABAC формата : Да
Параметр ReFrames формата : 4 кадра
Идентификатор кодека : V_MPEG4/ISO/AVC
Продолжительность : 1 ч. 21 м.
Вид битрейта : Переменный
Максимальный битрейт : 35,0 Мбит/сек
Ширина : 1920 пикселей
Высота : 1080 пикселей
Соотношение сторон : 16:9
Режим частоты кадров : Постоянный
Частота кадров : 23,976 кадра/сек
Цветовое пространство : YUV
Субдискретизация насыщенности : 4:2:0
Битовая глубина : 8 бит
Тип развёртки : Прогрессивная
Язык : English
Default : Да
Forced : Нет

Аудио #1
Идентификатор : 2
Формат : AC-3
Формат/Информация : Audio Coding 3
Расширение режима : CM (complete main)
Параметр Endianness формата : Big
Идентификатор кодека : A_AC3
Продолжительность : 1 ч. 21 м.
Вид битрейта : Постоянный
Битрейт : 192 Кбит/сек
Каналы : 2 канала
Расположение каналов : Front: L R
Частота : 48,0 КГц
Битовая глубина : 16 бит
Метод сжатия : С потерями
Размер потока : 113 Мбайт (1%)
Заголовок : MC Entertainment
Язык : Russian
Default : Да
Forced : Нет

Аудио #2
Идентификатор : 3
Формат : AC-3
Формат/Информация : Audio Coding 3
Расширение режима : CM (complete main)
Параметр Endianness формата : Big
Идентификатор кодека : A_AC3
Продолжительность : 1 ч. 21 м.
Вид битрейта : Постоянный
Битрейт : 192 Кбит/сек
Каналы : 2 канала
Расположение каналов : Front: L R
Частота : 48,0 КГц
Битовая глубина : 16 бит
Метод сжатия : С потерями
Размер потока : 113 Мбайт (1%)
Заголовок : Kinomania
Язык : Russian
Default : Нет
Forced : Нет

Аудио #3
Идентификатор : 4
Формат : AC-3
Формат/Информация : Audio Coding 3
Расширение режима : CM (complete main)
Параметр Endianness формата : Big
Идентификатор кодека : A_AC3
Продолжительность : 1 ч. 21 м.
Вид битрейта : Постоянный
Битрейт : 192 Кбит/сек
Каналы : 2 канала
Расположение каналов : Front: L R
Частота : 48,0 КГц
Битовая глубина : 16 бит
Метод сжатия : С потерями
Размер потока : 113 Мбайт (1%)
Заголовок : Толстобров
Язык : Russian
Default : Нет
Forced : Нет

Аудио #4
Идентификатор : 5
Формат : DTS
Формат/Информация : Digital Theater Systems
Профиль формата : MA / Core
Режим : 16
Параметр Endianness формата : Big
Идентификатор кодека : A_DTS
Продолжительность : 1 ч. 21 м.
Вид битрейта : Переменный
Битрейт : Неизвестно / 1509 Кбит/сек
Каналы : 2 канала
Расположение каналов : Front: L R
Частота : 48,0 КГц
Битовая глубина : 24 бит
Метод сжатия : Без потерь / Lossy
Язык : Japanese
Default : Нет
Forced : Нет

Текст
Идентификатор : 6
Формат : UTF-8
Идентификатор кодека : S_TEXT/UTF8
Идентификатор кодека/Информация : UTF-8 Plain Text
Заголовок : MC Entertainment
Язык : Russian
Default : Нет
Forced : Нет


Трекер:  [ 05-Авг-2015 15:00 ]

  

Скачать .torrent

Размер .torrent файла 64 KB


Размер: 12.77 GB
Хэш (hash) релиза: 09e3db406cdd26c504d4dd3690518f647a8c5d78
Подписка на обновления:

Еще никто не оставлял запись к записи скачать торрент Охотник на вампиров Ди Kyuuketsuki Hunter D . Будь первым!

!Обратная связь