Скачать через торрент музыку Презрение Le mépris бесплатно без регистрации torrent

Если у вас наблюдаются проблемы со скриншотами, переходом по ссылками, скачиванием торрентов - проблемы в блокировщике рекламы AdBlock. #хорошегоДня!


Статистика раздачи
Размер:  402 MB   |    Зарегистрирован:  2 года 4 месяца   |    .torrent скачан:  32 раза   |   
Раздают:  1  
   
Загрузка...
 
Автор Сообщение

Galfimbul

avatar Galfimbul



Презрение / Le mépris
Composed and Conducted by Georges Delerue

Жанр: Score | Дата выпуска: 2001
Издатель (лейбл): EmArcy | Номер по каталогу: 013 477-2
Аудиокодек: FLAC | Тип рипа: image+.cue | Битрейт аудио: lossless
Общая продолжительность: 70:22
Источник: Рип оригинального диска из личной коллекции
** Le mépris ** (1963)
01. Ouverture [1:51]
02. Camille [2:28]
03. Générique [2:08]
04. Capri [1:44]
05. Paul [2:01]
06. La rupture chez Prokoch [2:55]

** L'Aîné des Ferchaux ** (1963)
07. Les Appalaches [2:54]
08. Maudet et Ferchaux [2:08]

** La peau douce ** (1964)
09. Adultère [2:26]
10. Pierre et Nicole [2:44]

** Cent-mille dollars au soleil ** (1964)
11. Cent-mille dollars au soleil [2:09]
12. Sahara [4:48]

** L'insoumis ** (1964)
13. Thomas et Dominique [2:18]
14. La fête triste [3:35]
15. Mort de Thomas [3:46]

** Cartouche ** (1962)
16. Cartouche [2:15]
17. Vénus et Cartouche [2:07]
18. Au revoir mon amour! [2:31]
19. Il était une fois... [1:16]
20. Final [3:38]

** Heureux qui comme Ulysse ** (1970)
21. Danse provençale [1:14]
22. Lamento [3:34]
23. Ulysse [1:42]
24. Lamento (version cordes) [1:21]

** Compte à rebours ** (1971)
25. Madeleine [2:30]
26. Guet-apens [1:50]
27. Nolan [1:35]
28. Adagio [3:11]
Exact Audio Copy V1.0 beta 4 from 7. December 2014

EAC extraction logfile from 31. July 2015, 15:56

Georges Delerue / Le mepris

Used drive : TSSTcorpCDDVDW TS-L633C Adapter: 1 ID: 0

Read mode : SecureUtilize accurate stream : YesDefeat audio cache : YesMake use of C2 pointers : No

Read offset correction : 6Overread into Lead-In and Lead-Out : NoFill up missing offset samples with silence : YesDelete leading and trailing silent blocks : NoNull samples used in CRC calculations : YesUsed interface : Native Win32 interface for Win NT & 2000

Used output format : Internal WAV RoutinesSample format : 44.100 Hz; 16 Bit; Stereo

TOC of the extracted CD

Track | Start | Length | Start sector | End sector --------------------------------------------------------- 1 | 0:00.00 | 1:53.58 | 0 | 8532 2 | 1:53.58 | 2:31.11 | 8533 | 19868 3 | 4:24.69 | 2:10.38 | 19869 | 29656 4 | 6:35.32 | 1:46.40 | 29657 | 37646 5 | 8:21.72 | 2:04.61 | 37647 | 47007 6 | 10:26.58 | 3:00.10 | 47008 | 60517 7 | 13:26.68 | 2:56.72 | 60518 | 73789 8 | 16:23.65 | 2:14.14 | 73790 | 83853 9 | 18:38.04 | 2:29.09 | 83854 | 95037 10 | 21:07.13 | 2:51.18 | 95038 | 107880 11 | 23:58.31 | 2:11.49 | 107881 | 117754 12 | 26:10.05 | 4:54.54 | 117755 | 139858 13 | 31:04.59 | 2:20.22 | 139859 | 150380 14 | 33:25.06 | 3:35.74 | 150381 | 166579 15 | 37:01.05 | 3:52.39 | 166580 | 184018 16 | 40:53.44 | 2:18.37 | 184019 | 194405 17 | 43:12.06 | 2:10.09 | 194406 | 204164 18 | 45:22.15 | 2:33.27 | 204165 | 215666 19 | 47:55.42 | 1:19.28 | 215667 | 221619 20 | 49:14.70 | 3:45.73 | 221620 | 238567 21 | 53:00.68 | 1:16.64 | 238568 | 244331 22 | 54:17.57 | 3:36.29 | 244332 | 260560 23 | 57:54.11 | 1:44.54 | 260561 | 268414 24 | 59:38.65 | 1:25.60 | 268415 | 274849 25 | 61:04.50 | 2:32.25 | 274850 | 286274 26 | 63:37.00 | 1:52.16 | 286275 | 294690 27 | 65:29.16 | 1:38.08 | 294691 | 302048 28 | 67:07.24 | 3:14.53 | 302049 | 316651

Range status and errors

Selected range

Filename D:\Georges Delerue - CD Collection [by italia57]\Georges Delerue (1963) Le mepris\Georges Delerue - Le mepris (ELC 06).wav

Peak level 100.0 % Extraction speed 3.7 X Range quality 99.9 % Test CRC CCCC76FA Copy CRC CCCC76FA Copy OK

No errors occurred

AccurateRip summary

Track 1 accurately ripped (confidence 3) [DA52E05F] (AR v2)Track 2 accurately ripped (confidence 3) [EEB02103] (AR v2)Track 3 accurately ripped (confidence 3) [6678AA4D] (AR v2)Track 4 accurately ripped (confidence 3) [48FCD2C6] (AR v2)Track 5 accurately ripped (confidence 3) [FA36D9F4] (AR v2)Track 6 accurately ripped (confidence 3) [56AC9CD8] (AR v2)Track 7 accurately ripped (confidence 3) [7ABE1313] (AR v2)Track 8 accurately ripped (confidence 3) [E5ABE758] (AR v2)Track 9 accurately ripped (confidence 3) [6E52E43C] (AR v2)Track 10 accurately ripped (confidence 3) [C8BE1C8C] (AR v2)Track 11 accurately ripped (confidence 3) [15D9C440] (AR v2)Track 12 accurately ripped (confidence 3) [F04DE7C6] (AR v2)Track 13 accurately ripped (confidence 3) [CC10554F] (AR v2)Track 14 accurately ripped (confidence 3) [13477303] (AR v2)Track 15 accurately ripped (confidence 3) [92F08757] (AR v2)Track 16 accurately ripped (confidence 3) [8D4523AF] (AR v2)Track 17 accurately ripped (confidence 3) [1FF87DD8] (AR v2)Track 18 accurately ripped (confidence 3) [1DA4FD52] (AR v2)Track 19 accurately ripped (confidence 3) [75C72078] (AR v2)Track 20 accurately ripped (confidence 3) [98146EC7] (AR v2)Track 21 accurately ripped (confidence 3) [3BD28C8C] (AR v2)Track 22 accurately ripped (confidence 3) [CD2507CE] (AR v2)Track 23 accurately ripped (confidence 3) [BAE92A90] (AR v2)Track 24 accurately ripped (confidence 3) [FA1D77F4] (AR v2)Track 25 accurately ripped (confidence 3) [234C260E] (AR v2)Track 26 accurately ripped (confidence 3) [03384434] (AR v2)Track 27 accurately ripped (confidence 3) [F0E0B88B] (AR v2)Track 28 accurately ripped (confidence 3) [04A9F306] (AR v2)

All tracks accurately ripped

End of status report

---- CUETools DB Plugin V2.1.4

[CTDB TOCID: oFd4rqbdAzmElYtWQIP5DqpsdvI-] foundSubmit result: oFd4rqbdAzmElYtWQIP5DqpsdvI- has been confirmedTrack | CTDB Status 1 | (8/8) Accurately ripped 2 | (8/8) Accurately ripped 3 | (8/8) Accurately ripped 4 | (8/8) Accurately ripped 5 | (8/8) Accurately ripped 6 | (8/8) Accurately ripped 7 | (8/8) Accurately ripped 8 | (7/8) Accurately ripped 9 | (8/8) Accurately ripped 10 | (8/8) Accurately ripped 11 | (8/8) Accurately ripped 12 | (8/8) Accurately ripped 13 | (8/8) Accurately ripped 14 | (8/8) Accurately ripped 15 | (8/8) Accurately ripped 16 | (8/8) Accurately ripped 17 | (8/8) Accurately ripped 18 | (8/8) Accurately ripped 19 | (8/8) Accurately ripped 20 | (8/8) Accurately ripped 21 | (8/8) Accurately ripped 22 | (8/8) Accurately ripped 23 | (8/8) Accurately ripped 24 | (8/8) Accurately ripped 25 | (8/8) Accurately ripped 26 | (8/8) Accurately ripped 27 | (8/8) Accurately ripped 28 | (8/8) Accurately ripped

==== Log checksum 165F9E995D5C0E1C4B1B7654DDD814744D701082B8700FF797FC63E05707A137 ====
REM GENRE SoundtrackREM DATE 1963REM DISCID AD107E1CREM COMMENT "ExactAudioCopy v1.0b4"PERFORMER "Georges Delerue"TITLE "Le mepris"FILE "Georges Delerue - Le mepris (ELC 06).flac" WAVE TRACK 01 AUDIO TITLE "Le mepris - Ouverture" PERFORMER "Georges Delerue" INDEX 01 00:00:00 TRACK 02 AUDIO TITLE "Le mepris - Camille" PERFORMER "Georges Delerue" INDEX 01 01:53:58 TRACK 03 AUDIO TITLE "Le mepris - Generique" PERFORMER "Georges Delerue" INDEX 01 04:24:69 TRACK 04 AUDIO TITLE "Le mepris - Capri" PERFORMER "Georges Delerue" INDEX 01 06:35:32 TRACK 05 AUDIO TITLE "Le mepris - Paul" PERFORMER "Georges Delerue" INDEX 00 08:21:49 INDEX 01 08:21:72 TRACK 06 AUDIO TITLE "Le mepris - La rupture chez Prokoch" PERFORMER "Georges Delerue" INDEX 00 10:25:57 INDEX 01 10:26:58 TRACK 07 AUDIO TITLE "L'aine des ferchaux - Les Appalaches" PERFORMER "Georges Delerue" INDEX 00 13:23:38 INDEX 01 13:26:68 TRACK 08 AUDIO TITLE "L'aine des ferchaux - Maudet et Ferchaux" PERFORMER "Georges Delerue" INDEX 00 16:23:05 INDEX 01 16:23:65 TRACK 09 AUDIO TITLE "La peau douce - Adultere" PERFORMER "Georges Delerue" INDEX 00 18:34:19 INDEX 01 18:38:04 TRACK 10 AUDIO TITLE "La peau douce - Pierre et Nicole" PERFORMER "Georges Delerue" INDEX 01 21:07:13 TRACK 11 AUDIO TITLE "Cent-mille dollars au soleil - Generique" PERFORMER "Georges Delerue" INDEX 00 23:54:24 INDEX 01 23:58:31 TRACK 12 AUDIO TITLE "Cent-mille dollars au soleil - Sahara" PERFORMER "Georges Delerue" INDEX 01 26:10:05 TRACK 13 AUDIO TITLE "L'insoumis - Thomas et Dominique" PERFORMER "Georges Delerue" INDEX 00 31:00:58 INDEX 01 31:04:59 TRACK 14 AUDIO TITLE "L'insoumis - La fete triste" PERFORMER "Georges Delerue" INDEX 01 33:25:06 TRACK 15 AUDIO TITLE "L'insoumis - Mort de Thomas" PERFORMER "Georges Delerue" INDEX 01 37:01:05 TRACK 16 AUDIO TITLE "Cartouche - Cartouche" PERFORMER "Georges Delerue" INDEX 00 40:49:12 INDEX 01 40:53:44 TRACK 17 AUDIO TITLE "Cartouche - Venus et Cartouche" PERFORMER "Georges Delerue" INDEX 01 43:12:06 TRACK 18 AUDIO TITLE "Cartouche - Au revoir mon amour" PERFORMER "Georges Delerue" INDEX 01 45:22:15 TRACK 19 AUDIO TITLE "Cartouche - Il etait une fois..." PERFORMER "Georges Delerue" INDEX 01 47:55:42 TRACK 20 AUDIO TITLE "Cartouche - Final" PERFORMER "Georges Delerue" INDEX 01 49:14:70 TRACK 21 AUDIO TITLE "Heureux qui comme Ulysse - Dance provencale" PERFORMER "Georges Delerue" INDEX 00 52:57:63 INDEX 01 53:00:68 TRACK 22 AUDIO TITLE "Heureux qui comme Ulysse - Lamento" PERFORMER "Georges Delerue" INDEX 01 54:17:57 TRACK 23 AUDIO TITLE "Heureux qui comme Ulysse - Ulysse" PERFORMER "Georges Delerue" INDEX 01 57:54:11 TRACK 24 AUDIO TITLE "Heureux qui comme Ulysse - Lamento (version cordes)" PERFORMER "Georges Delerue" INDEX 01 59:38:65 TRACK 25 AUDIO TITLE "Compte a rebours - Madeleine" PERFORMER "Georges Delerue" INDEX 00 61:02:03 INDEX 01 61:04:50 TRACK 26 AUDIO TITLE "Compte a rebours - Guet-apens" PERFORMER "Georges Delerue" INDEX 01 63:37:00 TRACK 27 AUDIO TITLE "Compte a rebours - Nolan" PERFORMER "Georges Delerue" INDEX 01 65:29:16 TRACK 28 AUDIO TITLE "Compte a rebours - Adagio" PERFORMER "Georges Delerue" INDEX 00 67:06:47 INDEX 01 67:07:24


Трекер:  [ 01-Авг-2015 11:00 ]

  

Скачать .torrent

Размер .torrent файла 33 KB


Размер: 402 MB
Хэш (hash) релиза: 40c78545f39cc51a30bcf98c31e3f0d0baafc8e0

Еще никто не оставлял запись к записи скачать торрент Презрение Le mépris . Будь первым!

!Обратная связь