Скачать через торрент Лабиринт в серых тонах Grisaia no Meikyuu бесплатно Аниме Все серии на русском torrent

Если у вас наблюдаются проблемы со скриншотами, переходом по ссылками, скачиванием торрентов - проблемы в блокировщике рекламы AdBlock. #хорошегоДня!


Статистика раздачи
Размер:  580 MB   |    Зарегистрирован:  2 года 4 месяца   |    .torrent скачан:  27 раз   |   
Раздают:  1  
   
Загрузка...
 
Автор Сообщение

Galfimbul

avatar Galfimbul


Лабиринт в серых тонах / Grisaia no Meikyuu / The Labyrinth of Grisaia / Le Labyrinthe de la Grisaia

Страна: Япония
Год выпуска: 2015 г.
Жанр: драма
Тип: TV-Special
Продолжительность: 1 эп., ~48 мин. + 1 спешл, ~4 мин.
Режиссер: Танака Мотоки
Студия: 8bit

Перевод:
русские субтитры от Timecraft (надписи/полные)
(Перевод: Nachtwandler; Редакция: AleX_MytH; Оформление: Surokune)

Описание: В ожидании повышения Юджи собирает необходимые документы и, написав от руки краткую автобиографию, подает их начальству. Но письменного рассказа о происхождении и его ранних годах жизни оказывается недостаточно: начальству необходимо заглянуть в голову Юджи и понять, что он переживал и как справлялся с эмоциями на протяжении всей своей жизни. Кто был рядом с ним, какие отношения связывали его с окружающими, почему Юджи стал именно таким, каким стал?

Выполняя без особой на то охоты желание начальства, Юджи начинает свой рассказ, который с каждой минутой становится все мрачнее и прекрасно объясняет его тягу к нормальной жизни. Детство, проведенное в тени гениальной старшей сестры и в обществе отстранившихся от Юджи родителей – отца, который презирал своего «заурядного» сына, и слабовольной матери. Отрочество в школе для будущих киллеров, где Юджи, «любимчика» хозяина, презирали почти все. Профессиональная карьера наемного убийцы, за которым охотится ЦРУ… и, наконец, встреча с одним хорошим человеком, который полностью изменил всю его жизнь.

Качество: BDRip
Тип релиза: Без хардсаба
Формат видео: MP4
Наличие линковки: Нет
Релиз/Автор рипа: Ohys-Raws
Видео: x264 (8 bit), 1280x720, 1310 Kbps, 23.976 fps
Аудио JAP: AAC, 48000 Hz, ~192 Kbps, 2 ch
Аудио RUS: AAC, 48000Hz, ~192 Kbps, 2ch (внешними файлами); Озвучка: трёхголосая от Cuba77 & Nika Lenina & Гамлетка Цезаревна (AniDub)
Субтитры 1: ASS, внешние - Надписи, Язык субтитров русский
Субтитры 2: ASS, внешние - Полные, Язык субтитров русский
GeneralComplete name : C:\Documents and Settings\Администратор\Мои документы\Downloads\Grisaia no Meikyuu [BD 720p]\Grisaia no Meikyuu (BD 1280x720 x264 AAC).mp4Format : MPEG-4Format profile : Base MediaCodec ID : isomFile size : 514 MiBDuration : 47mn 41sOverall bit rate mode : VariableOverall bit rate : 1 507 KbpsEncoded date : UTC 2015-07-29 22:06:41Tagged date : UTC 2015-07-29 22:06:41

VideoID : 1Format : AVCFormat/Info : Advanced Video CodecFormat profile : Main@L4.1Format settings, CABAC : YesFormat settings, ReFrames : 4 framesCodec ID : avc1Codec ID/Info : Advanced Video CodingDuration : 47mn 41sBit rate : 1 310 KbpsMaximum bit rate : 10.8 MbpsWidth : 1 280 pixelsHeight : 720 pixelsDisplay aspect ratio : 16:9Frame rate mode : ConstantFrame rate : 23.976 fpsColor space : YUVChroma subsampling : 4:2:0Bit depth : 8 bitsScan type : ProgressiveBits/(Pixel*Frame) : 0.059Stream size : 447 MiB (87%)Writing library : x264 core 146 r2538 121396cEncoding settings : cabac=1 / ref=3 / deblock=1:0:0 / analyse=0x1:0x131 / me=umh / subme=9 / psy=1 / psy_rd=1.00:0.00 / mixed_ref=1 / me_range=32 / chroma_me=1 / trellis=1 / 8x8dct=0 / cqm=0 / deadzone=21,11 / fast_pskip=1 / chroma_qp_offset=-2 / threads=12 / lookahead_threads=1 / sliced_threads=0 / nr=0 / decimate=1 / interlaced=0 / bluray_compat=0 / constrained_intra=0 / bframes=3 / b_pyramid=2 / b_adapt=1 / b_bias=0 / direct=1 / weightb=1 / open_gop=0 / weightp=2 / keyint=240 / keyint_min=1 / scenecut=40 / intra_refresh=0 / rc_lookahead=40 / rc=crf / mbtree=1 / crf=17.0 / qcomp=0.60 / qpmin=0 / qpmax=69 / qpstep=4 / ip_ratio=1.40 / aq=1:1.00Encoded date : UTC 2015-07-29 22:06:41Tagged date : UTC 2015-07-29 22:06:50

AudioID : 2Format : AACFormat/Info : Advanced Audio CodecFormat profile : LCCodec ID : 40Duration : 47mn 41sBit rate mode : VariableBit rate : 192 KbpsMaximum bit rate : 275 KbpsChannel count : 2 channelsChannel positions : Front: L RSampling rate : 48.0 KHzCompression mode : LossyStream size : 65.7 MiB (13%)Language : JapaneseEncoded date : UTC 2015-07-29 22:01:18Tagged date : UTC 2015-07-29 22:06:50
[url]...4986215[/url] - BDRip
[url]...4990373[/url] - BDRip
[url]...5051252[/url] - BDRip 720p


Трекер:  [ 30-Июл-2015 07:00 ]

  

Скачать .torrent

Размер .torrent файла 12 KB


Размер: 580 MB
Хэш (hash) релиза: b2b8b398fd8ffdf43b5ddc343e3b51156f90e4bf
Подписка на обновления:

Торренты, похожие на Лабиринт в серых тонах Grisaia no Meikyuu скачать торрент

Форум Название Автор Размер S L Добавлен
Аниме | HD Rips ·· Лабиринт в серых тонах / Grisaia no Meikyuu / The Labyrinth of Grisaia / Le Labyrinthe de la Grisaia (Танака Мотоки) [TV-Special] [1+0 из 1+1] [Без хардсаба] [RUS(ext), JAP+SUB] [2015 г., драма, BDRip] [1080p] Galfimbul 10895322051.01 GB 0 0 1438230097

07:21

30-Июл-15

Еще никто не оставлял запись к записи скачать торрент Лабиринт в серых тонах Grisaia no Meikyuu . Будь первым!

!Обратная связь