Скачать порно через торрент moms bang teens 6 мамы трахают подростков 6 UnionPeer.org бесплатно онлайн HD качество

Скачать новое порно 2015, 2014 новинки через торрент UnionPeer.org

Порно торрент бесплатно ЮнионПир.орг

Если у вас наблюдаются проблемы со скриншотами, переходом по ссылками, скачиванием торрентов - проблемы в блокировщике рекламы AdBlock. #хорошегоДня!


Статистика раздачи
Размер:  4.24 GB   |    Зарегистрирован:  2 года   |    .torrent скачан:  706 раз   |   
Раздают:  1  
   
Загрузка...
 
Автор Сообщение

Galfimbul

avatar Galfimbul


moms bang teens 6 / мамы трахают подростков 6

Год производства: 2013 г.
Страна: USA
Жанр: Straight , Blowjob , Teen , MILF , Hardcore
Продолжительность: 3:28:44
Язык: Английский

Режиссер: N/A
Студия: REALITY KINGS

В ролях:
Tanya Tate, Mia Malkova, Nikita Von James, Brandi Love, Cassandra Nix, Staci Silverstone, Eva Karera, Rikki Six, Madison Chandler

Описание: Mature Women Teaching Teens How To Fuck!

MILFs Who Love To Teach Teens!

мамы учат подростков трахаться

Качество видео: DVDRip
Формат видео: AVI
Видео: XVID Codec ID/Hint XviD, 720*416, Bit rate 2 711 Kbps Width
Аудио: AC3, Bit rate: 192 Kbps
General
Complete name : D:\фильмы\Moms Bang Teens 6 (Reality Kings) XXX (DVDRip).avi
Format : AVI
Format/Info : Audio Video Interleave
Format profile : OpenDML
File size : 4.24 GiB
Duration : 3h 28mn
Overall bit rate : 2 910 Kbps
Writing application : VirtualDubMod 1.5.4.1 (build 2178/release)
Writing library : VirtualDubMod build 2178/release

Video
ID : 0
Format : MPEG-4 Visual
Format profile : Advanced Simple@L5
Format settings, BVOP : 1
Format settings, QPel : No
Format settings, GMC : No warppoints
Format settings, Matrix : Custom
Codec ID : XVID
Codec ID/Hint : XviD
Duration : 3h 28mn
Bit rate : 2 711 Kbps
Width : 720 pixels
Height : 416 pixels
Display aspect ratio : 1.731
Frame rate : 29.970 fps
Color space : YUV
Chroma subsampling : 4:2:0
Bit depth : 8 bits
Scan type : Progressive
Compression mode : Lossy
Bits/(Pixel*Frame) : 0.302
Stream size : 3.95 GiB (93%)
Writing library : XviD 1.2.1 (UTC 2008-12-04)

Audio
ID : 1
Format : AC-3
Format/Info : Audio Coding 3
Mode extension : CM (complete main)
Format settings, Endianness : Big
Codec ID : 2000
Duration : 3h 28mn
Bit rate mode : Constant
Bit rate : 192 Kbps
Channel count : 2 channels
Channel positions : Front: L R
Sampling rate : 48.0 KHz
Bit depth : 16 bits
Compression mode : Lossy
Stream size : 287 MiB (7%)
Alignment : Split accross interleaves
Interleave, duration : 96 ms (2.88 video frames)
Interleave, preload duration : 96 ms


Трекер:  [ 28-Июл-2015 13:30 ]

  

Скачать .torrent

Размер .torrent файла 11 KB


Размер: 4.24 GB
Хэш (hash) релиза: 748b9cd69b8212ec7dbd1c37c8d84af49a7f4d6d

Еще никто не оставлял запись к записи скачать торрент moms bang teens 6 мамы трахают подростков 6 . Будь первым!

!Обратная связь