Скачать через торрент Рандеву с жизнью 2 Date a Live II бесплатно Аниме Все серии на русском torrent

Если у вас наблюдаются проблемы со скриншотами, переходом по ссылками, скачиванием торрентов - проблемы в блокировщике рекламы AdBlock. #хорошегоДня!


Статистика раздачи
Размер:  4.39 GB   |    Зарегистрирован:  2 года 2 месяца   |    .torrent скачан:  46 раз   |   
Раздают:  1  
   
Загрузка...
 
Автор Сообщение

Galfimbul

avatar Galfimbul


Рандеву с жизнью 2 / Date a Live II

Страна: Япония
Год выпуска: 2014 г.
Жанр: приключения, романтика, фантастика, мистика
Тип: TV
Продолжительность: 10 эп, ~26-30 мин. серия
Режиссер: Мотонага Кэйтаро
Студия: Production IMS

Описание: Загадочные Духи, разрыватели измерений, продолжают паломничество на Землю, но голубая планета уже готова к встрече! Сидо Ицука, простой японский старшеклассник и главная надежда человечества, в совершенстве овладел искусством покорять сердца девушек, чей облик раз за разом принимают могущественные пришельцы. Бомбы и ракеты больше не нужны - любовь и безграничное доверие помогают обуздать разрушительные силы. Один поцелуй и все – опасности нет, родился новый ценный член общества!

Конечно, одного Сидо для защиты Земли маловато, но у парня есть серьезные покровители, и прежде всего – тайная организация «Рататоскр» под командой его сводной сестры Котори (она же огненный дух Ифрит). Да и другие Духи, вставшие на путь исправления, всегда готовы помочь своему любимому доказать алчным хозяевам жизни, что даже с незваными гостями поступать надо по-человечески. Конечно, работа Ицуку ждет большая, но кто говорил, что будет легко?!

Качество: BDRip [=^_^=]
Тип релиза: Без хардсаба
Формат видео: MKV
Видео: AVC (10 bit), 1280x720, ~1923 kbps, 23.976 fps
Аудио: Vorbis, 320 kbps, 48.0 kHz, 2 ch Язык Японский
Субтитры: ASS, Встроенные, Полные | Надписи «GMC» Язык субтитров русский ; Перевод: Переводчик: Koushin | Редактор: Shifroval | QC: matoi-kun | Перевод лирики: General TAB |//Доработка: gt35
BD доп.контент переведен мной полностью.
от
[url]...4715590[/url]
[url]...4879687[/url]
-BDRip
[url]...5044526[/url]
-720p
GeneralUnique ID : 207772016775810581133564016792043500372 (0x9C4F6F53BBD8F04AA55DBEAEB32FB354)Complete name : Date a Live II [BD] [720]\Date a Live II [01] [BDRip, 720p, Vorbis].mkvFormat : MatroskaFormat version : Version 4 / Version 2File size : 441 MiBDuration : 27mn 45sOverall bit rate mode : VariableOverall bit rate : 2 223 KbpsEncoded date : UTC 2015-07-27 19:25:31Writing application : mkvmerge v8.2.0 ('World of Adventure') 64bitWriting library : libebml v1.3.1 + libmatroska v1.4.2DURATION : 00:27:45.672000000NUMBER_OF_FRAMES : 177576NUMBER_OF_BYTES : 61789992_STATISTICS_WRITING_APP : mkvmerge v8.2.0 ('World of Adventure') 64bit_STATISTICS_WRITING_DATE_UT : 2015-07-27 19:25:31_STATISTICS_TAGS : BPS DURATION NUMBER_OF_FRAMES NUMBER_OF_BYTES

VideoID : 1Format : AVCFormat/Info : Advanced Video CodecFormat profile : High 10@L5Format settings, CABAC : YesFormat settings, ReFrames : 8 framesCodec ID : V_MPEG4/ISO/AVCDuration : 27mn 45sBit rate : 1 859 KbpsWidth : 1 280 pixelsHeight : 720 pixelsDisplay aspect ratio : 16:9Frame rate mode : ConstantFrame rate : 23.976 fpsColor space : YUVChroma subsampling : 4:2:0Bit depth : 10 bitsScan type : ProgressiveBits/(Pixel*Frame) : 0.084Stream size : 369 MiB (84%)Title : Date a Live II ep.01 «Daily Life»Writing library : x264 core 142 r2409 d6b4e63Encoding settings : cabac=1 / ref=8 / deblock=1:-3:-3 / analyse=0x3:0x113 / me=umh / subme=9 / psy=1 / psy_rd=0.90:0.00 / mixed_ref=1 / me_range=32 / chroma_me=1 / trellis=2 / 8x8dct=1 / cqm=0 / deadzone=21,11 / fast_pskip=0 / chroma_qp_offset=-2 / threads=12 / lookahead_threads=2 / sliced_threads=0 / nr=0 / decimate=1 / interlaced=0 / bluray_compat=0 / constrained_intra=0 / bframes=9 / b_pyramid=2 / b_adapt=2 / b_bias=0 / direct=1 / weightb=1 / open_gop=0 / weightp=2 / keyint=240 / keyint_min=23 / scenecut=40 / intra_refresh=0 / rc=crf / mbtree=0 / crf=16.0 / qcomp=0.75 / qpmin=0 / qpmax=81 / qpstep=4 / ip_ratio=1.40 / pb_ratio=1.30 / aq=1:0.90Default : YesForced : NoColor range : LimitedColor primaries : BT.709Transfer characteristics : BT.709Matrix coefficients : BT.709

AudioID : 2Format : VorbisFormat settings, Floor : 1Codec ID : A_VORBISDuration : 27mn 45sBit rate mode : VariableBit rate : 320 KbpsChannel(s) : 2 channelsSampling rate : 48.0 KHzCompression mode : LossyStream size : 63.5 MiB (14%)Writing library : libVorbis (Schaufenugget) (20101101 (Schaufenugget))Language : JapaneseDefault : YesForced : No
01. Повседневность
02. Дети урагана
03. Два желания
04. Явление
05. Дива
06. Девичья музыка
07. Песнь несчаcтья
08. Выполненное обещание
09. Правда о Мику
10. Перевоплощение


Трекер:  [ 27-Июл-2015 23:00 ]

  

Скачать .torrent

Размер .torrent файла 13 KB


Размер: 4.39 GB
Хэш (hash) релиза: f2dad42be6931a3bd612c82397b304832d385b8a
Подписка на обновления:

Еще никто не оставлял запись к записи скачать торрент Рандеву с жизнью 2 Date a Live II . Будь первым!

!Обратная связь