Скачать через торрент Оверлорд Повелитель бесплатно Аниме Все серии на русском torrent

Если у вас наблюдаются проблемы со скриншотами, переходом по ссылками, скачиванием торрентов - проблемы в блокировщике рекламы AdBlock. #хорошегоДня!


Статистика раздачи
Размер:  786 MB   |    Зарегистрирован:  2 года 1 месяц   |    .torrent скачан:  43 раза   |   
Раздают:  1  
   
Загрузка...
 
Автор Сообщение

Galfimbul

avatar Galfimbul


Оверлорд / Повелитель / Overlord
Год выпуска: 2015
Страна: Япония
Жанр: приключения, фэнтези
Продолжительность: ТВ, 13 эп. по 24 мин.
Студия: Madhouse Studios
Режиссер: Ито Наоюки
Описание: История начинается с последнего дня существования популярной онлайн-игры «Иггдрасиль». Главный герой, Момонга, решил остаться в любимой игре до самого последнего момента. Однако сервер не прекратил свою работу, и Момонга застревает в своем скелетоподобном персонаже и переносится в другой мир. Теперь "Могучему Властелину" придется открыть для себя новый мир и столкнуться с многочисленными испытаниями.У него нет ни родни, ни друзей, ни места под солнцем, но он приложит все усилия для того, чтобы завоевать новый мир, которым стала для него игра.
Перевод: Русские субтитры от [YSS], Перевод / Лирика: Lulu. Редактор: Aero. Оформление: Helge (ASS, внешним файлом)
Озвучивание: двухголосая (муж./жен.) Zendos & Eladiel
Качество: HDTVRip [Leopard-Raws]
Формат: MKV
Видео кодек: H.264
Аудио кодек: AAC
Видео: H.264, AVC, 1280x720, ~1975 kbps, 23.976 fps [8 bit]
Аудио №1 : JAP, AAC; 48 KHz; ~192 Kbps (2ch);
Аудио №2: RUS, AAC, 48 KHz, ~192 kbps, 2 ch (2ch); (внешним файлом)
World Art | AniDB
General
Complete name : D:\Видео\Аниме\Ongoing\Overlord\[Leopard-Raws] Overlord - 01 RAW (ATX 1280x720 x264 AAC).mp4
Format : MPEG-4
Format profile : Base Media
Codec ID : isom
File size : 373 MiB
Duration : 24mn 0s
Overall bit rate mode : Variable
Overall bit rate : 2 170 Kbps
Encoded date : UTC 2015-07-07 20:47:24
Tagged date : UTC 2015-07-07 20:47:24

Video
ID : 1
Format : AVC
Format/Info : Advanced Video Codec
Format profile : High@L4.1
Format settings, CABAC : Yes
Format settings, ReFrames : 4 frames
Codec ID : avc1
Codec ID/Info : Advanced Video Coding
Duration : 24mn 0s
Bit rate : 1 975 Kbps
Maximum bit rate : 9 039 Kbps
Width : 1 280 pixels
Height : 720 pixels
Display aspect ratio : 16:9
Frame rate mode : Constant
Frame rate : 23.976 fps
Color space : YUV
Chroma subsampling : 4:2:0
Bit depth : 8 bits
Scan type : Progressive
Bits/(Pixel*Frame) : 0.089
Stream size : 339 MiB (91%)
Title : 264:fps=23.976@GPAC0.5.1-DEV-rev4929
Writing library : x264 core 129 r2245+729M 1a52e03
Encoding settings : cabac=1 / ref=4 / deblock=1:1:-1 / analyse=0x3:0x113 / me=umh / subme=9 / psy=1 / fade_compensate=0.00 / psy_rd=1.00:0.00 / mixed_ref=1 / me_range=24 / chroma_me=1 / trellis=2 / 8x8dct=1 / cqm=0 / deadzone=21,11 / fast_pskip=1 / chroma_qp_offset=-2 / threads=8 / lookahead_threads=1 / sliced_threads=0 / nr=0 / decimate=1 / interlaced=0 / bluray_compat=0 / constrained_intra=0 / fgo=0 / bframes=9 / b_pyramid=2 / b_adapt=2 / b_bias=0 / direct=1 / weightb=1 / open_gop=0 / weightp=2 / keyint=240 / keyint_min=24 / scenecut=40 / intra_refresh=0 / rc=crf / mbtree=0 / crf=18.5 / qcomp=0.72 / qpmin=0 / qpmax=69 / qpstep=4 / ip_ratio=1.40 / pb_ratio=1.30 / aq=1:0.85
Encoded date : UTC 2015-07-07 20:47:24
Tagged date : UTC 2015-07-07 20:47:26
Color primaries : BT.709
Transfer characteristics : BT.709
Matrix coefficients : BT.709

Audio
ID : 2
Format : AAC
Format/Info : Advanced Audio Codec
Format profile : LC
Codec ID : 40
Duration : 24mn 0s
Bit rate mode : Variable
Bit rate : 192 Kbps
Maximum bit rate : 229 Kbps
Channel(s) : 2 channels
Channel positions : Front: L R
Sampling rate : 48.0 KHz
Compression mode : Lossy
Stream size : 32.9 MiB (9%)
Language : Japanese
Encoded date : UTC 2015-07-07 17:10:08
Tagged date : UTC 2015-07-07 20:47:26
01. End and Beginning
02. Floor Guardians
[url]...5038680[/url] - Наличие озвучки
[url]...5045889[/url] - Альтернативная озвучка


Трекер:  [ 27-Июл-2015 17:30 ]

  

Скачать .torrent

Размер .torrent файла 16 KB


Размер: 786 MB
Хэш (hash) релиза: fe9abfdc1abebf3a88a61a87cccc871096f32579
Подписка на обновления:

Еще никто не оставлял запись к записи скачать торрент Оверлорд Повелитель . Будь первым!

!Обратная связь