Sen to Chihiro no Kamikakushi torrent

, , - AdBlock. #!


55.53 GB   |    :  2 2    |    .torrent :  58    |   
1  
   
...
 

Galfimbul

avatar Galfimbul


[url=...4722800] [/url][url=...4612785] [/url][url=...4629918] [/url][url=...3690943] [/url][url=...4766434] [/url][url=...4651642] [/url][url=...4901371] [/url][url=...4178733] [/url][url=...4936128/] [/url][url=...4978082] [/url][url=...4851914] [/url][url=...4119317] [/url][url=...5043266] [/url][url=...5006347] [/url][url=...3875703] [/url][url=...4465304] [/url] [url=...4989310] [/url][url=...4979621] [/url]Sen to Chihiro no Kamikakushi / 千と千尋の神隠し / Spirited Away /
:
: 2001 .
: , ,
: Movie
: 124 .
: Hayao Miyazaki
: Ghibli

: 10- , . , , .

: " " , . , . , , , . , , , , . , , , ( ), . , . . , , , "", . . , , , , , , , . , , , : " , , !" , . , , , , . , 10- .
. , , - . "" " !" , , . , ( ). , : " !", , . , , , . , , .
, . , , "". , . . - . , . , , , , . , , . , , . , , , , " " " ". " ", .
-, , , . , , . , " -" " -" , - , . . . , , , . , .
, , . , . , , , , , .
, 10- , .8 1999 .

: Blu-ray
:
: M2TS
: MPEG-4 AVC Video / 1920x1080 / 29929 kbps / 23,976 fps / 16:9 / High Profile 4.1
1: LPCM Audio 2.0 / 48 kHz / 2304 kbps / 24-bit
2: DTS-HD Master Audio / 6.1 / 48 kHz / 4730 kbps / 24-bit (DTS Core: 6.1-ES / 48 kHz / 1509 kbps / 24-bit)
3: Dolby Digital Audio / 5.1 / 48 kHz / 448 kbps
4: [-1/CP Digital ()] DTS Audio / 5.1 / 48 kHz / 768 kbps / 24-bit
5: [Tycoon ()] DTS-ES Audio / 6.1-ES / 48 kHz / 768 kbps / 24-bit
6: [., . ()] DTS-ES Audio / 6.1-ES / 48 kHz / 768 kbps / 24-bit
7: [DVDXpert ()] Audio: Russian / DTS-ES Audio / 6.1-ES / 48 kHz / 768 kbps / 24-bit
8: [2x2 ()] Dolby Digital Audio / 2.0 / 48 kHz / 192 kbps
9: [. (, )] DTS-ES Audio / 6.1-ES / 48 kHz / 768 kbps / 24-bit
10: [ ()] Dolby Digital Audio / 2.0 / 48 kHz / 192 kbps
1: ,
2: ,
3: , [-1/CP Digital]
4: , [toph]
5: , [i-]

( 1- , 2- ):
<ol class="post-ul">
(NHK Special)
" "
(-)

( BurniN∙SnikerS).
</ol>


:
[url=...mode=viewprofile&u=5524656]8bitman[/url]
[url=...mode=viewprofile&u=3380543]TFloater[/url]
1 MGVC- " " " ". , .. , ( ) (.. " " ).
2 :
, " " ( ),
DVD Disney ( Blu-ray, DVD , , ),
(NHK Special) ( , ),
.

.
DTS-HD MA 5, 6, 7, 9 . wave- eac3to 768 kbps DTS-HD Master Audio Suite Blu-ray.
36- BD- KDM ( ) .
Sonic Scenarist 5.7.2. Sony PS3, PowerDVD 12, TMT5 Toshiba BDX1200.
Disc Title: Sen to Chihiro no Kamikakushi Disc 1Disc Size: 41 545 331 474 bytesProtection: AACSBD-Java: NoBDInfo: 0.5.8

Notes:

BDINFO HOME: Cinema Squid http://www.cinemasquid.com/blu-ray/tools/bdinfo

INCLUDES FORUMS REPORT FOR: AVS Forum Blu-ray Audio and Video Specifications Thread http://www.avsforum.com/avs-vb/showthread.php?t=1155731

********************PLAYLIST: 00002.MPLS********************

<--- BEGIN FORUMS PASTE --->

Total Video
Title Codec Length Movie Size Disc Size Bitrate Bitrate Main Audio Track Secondary Audio Track
----- ------ ------- -------------- -------------- ------- ------- ------------------ ---------------------
00002.MPLS AVC 2:04:32 41401982976 41545331474 44.33 29.93 LPCM 2.0 2304Kbps (48kHz/24-bit) DTS-HD Master 6.1 4730Kbps (48kHz/24-bit)
DISC INFO:

Disc Title: Sen to Chihiro no Kamikakushi Disc 1
Disc Size: 41545331474 bytes
Protection: AACS
BD-Java: No
BDInfo: 0.5.8

PLAYLIST REPORT:

Name: 00002.MPLS
Length: 2:04:32.256 (h:m:s.ms)
Size: 41401982976 bytes
Total Bitrate: 44.33 Mbps

VIDEO:

Codec Bitrate Description
----- ------- -----------
MPEG-4 AVC Video 29929 kbps 1080p / 23.976 fps / 16:9 / High Profile 4.1

AUDIO:

Codec Language Bitrate Description
----- -------- ------- -----------
LPCM Audio Japanese 2304 kbps 2.0 / 48 kHz / 2304 kbps / 24-bit
DTS-HD Master Audio Japanese 4730 kbps 6.1 / 48 kHz / 4730 kbps / 24-bit (DTS Core: 6.1-ES / 48 kHz / 1509 kbps / 24-bit)
Dolby Digital Audio English 448 kbps 5.1 / 48 kHz / 448 kbps
DTS Audio Russian 768 kbps 5.1 / 48 kHz / 768 kbps / 24-bit
DTS-ES Audio Russian 768 kbps 6.1-ES / 48 kHz / 768 kbps / 24-bit
DTS-ES Audio Russian 768 kbps 6.1-ES / 48 kHz / 768 kbps / 24-bit
DTS-ES Audio Russian 768 kbps 6.1-ES / 48 kHz / 768 kbps / 24-bit
Dolby Digital Audio Russian 192 kbps 2.0 / 48 kHz / 192 kbps / DN -4dB
DTS-ES Audio Russian 768 kbps 6.1-ES / 48 kHz / 768 kbps / 24-bit
Dolby Digital Audio Ukrainian 192 kbps 2.0 / 48 kHz / 192 kbps / DN -4dB

SUBTITLES:

Codec Language Bitrate Description
----- -------- ------- -----------
Presentation Graphics Japanese 23.013 kbps
Presentation Graphics English 24.537 kbps
Presentation Graphics Russian 16.047 kbps
Presentation Graphics Russian 18.257 kbps
Presentation Graphics Ukrainian 15.443 kbps

FILES:

Name Time In Length Size Total Bitrate
---- ------- ------ ---- -------------
00005.M2TS 0:00:00.000 2:04:32.256 41401982976 44326

CHAPTERS:

Number Time In Length Avg Video Rate Max 1-Sec Rate Max 1-Sec Time Max 5-Sec Rate Max 5-Sec Time Max 10Sec Rate Max 10Sec Time Avg Frame Size Max Frame Size Max Frame Time
------ ------- ------ -------------- -------------- -------------- -------------- -------------- -------------- -------------- -------------- -------------- --------------
1 0:00:00.000 0:01:39.099 31811 kbps 47537 kbps 00:00:01.001 38343 kbps 00:00:18.059 35735 kbps 00:00:52.886 165780 bytes 756381 bytes 00:01:36.888
2 0:01:39.099 0:01:37.138 31831 kbps 45062 kbps 00:02:39.158 38496 kbps 00:02:35.196 35178 kbps 00:02:53.756 165955 bytes 955835 bytes 00:03:14.402
3 0:03:16.237 0:04:07.288 31082 kbps 46006 kbps 00:04:05.620 37408 kbps 00:06:44.237 35524 kbps 00:04:43.533 162047 bytes 821400 bytes 00:04:15.838
4 0:07:23.526 0:03:21.868 32397 kbps 41944 kbps 00:09:58.556 36955 kbps 00:09:55.886 34865 kbps 00:10:08.816 168903 bytes 862597 bytes 00:07:51.470
5 0:10:45.394 0:06:17.627 31725 kbps 53337 kbps 00:16:56.306 37749 kbps 00:16:44.628 35812 kbps 00:16:29.822 165397 bytes 842391 bytes 00:12:52.438
6 0:17:03.022 0:05:45.511 31780 kbps 53016 kbps 00:19:08.939 38570 kbps 00:17:05.816 35466 kbps 00:20:27.476 165685 bytes 841073 bytes 00:20:12.002
7 0:22:48.533 0:05:47.513 27809 kbps 46290 kbps 00:24:06.820 37332 kbps 00:23:11.556 34845 kbps 00:23:06.301 144982 bytes 738238 bytes 00:24:00.814
8 0:28:36.047 0:04:52.125 29190 kbps 45225 kbps 00:31:13.204 36623 kbps 00:28:59.446 34678 kbps 00:30:54.102 152181 bytes 761935 bytes 00:31:07.991
9 0:33:28.172 0:04:53.501 26680 kbps 45815 kbps 00:37:42.134 38533 kbps 00:37:40.758 34714 kbps 00:36:56.589 139097 bytes 881389 bytes 00:35:23.621
10 0:38:21.674 0:05:50.141 23601 kbps 48212 kbps 00:38:23.551 36566 kbps 00:38:23.551 34452 kbps 00:39:27.531 123045 bytes 788824 bytes 00:39:16.062
11 0:44:11.815 0:04:15.004 29450 kbps 45501 kbps 00:45:54.042 38457 kbps 00:47:21.964 34971 kbps 00:44:22.034 153539 bytes 797865 bytes 00:47:45.821
12 0:48:26.820 0:06:04.530 28791 kbps 48538 kbps 00:54:00.779 36868 kbps 00:48:42.085 34763 kbps 00:52:47.956 150102 bytes 918834 bytes 00:48:31.283
13 0:54:31.351 0:07:37.665 27775 kbps 45947 kbps 00:59:02.455 38077 kbps 01:00:29.751 35146 kbps 00:58:17.577 144804 bytes 750695 bytes 01:00:13.401
14 1:02:09.016 0:06:02.570 32194 kbps 45629 kbps 01:07:09.442 37956 kbps 01:04:29.323 35289 kbps 01:03:15.958 167846 bytes 831521 bytes 01:05:17.496
15 1:08:11.587 0:06:25.259 30203 kbps 48897 kbps 01:14:12.990 38247 kbps 01:13:17.893 35660 kbps 01:12:48.697 157463 bytes 736281 bytes 01:10:17.713
16 1:14:36.847 0:04:33.731 28178 kbps 52541 kbps 01:15:28.732 38420 kbps 01:16:29.793 34912 kbps 01:14:37.848 146907 bytes 864514 bytes 01:19:02.195
17 1:19:10.579 0:06:29.180 32183 kbps 51434 kbps 01:21:52.782 38325 kbps 01:19:49.534 35721 kbps 01:20:15.519 167786 bytes 829169 bytes 01:22:28.652
18 1:25:39.759 0:05:39.130 30679 kbps 45211 kbps 01:27:58.481 38465 kbps 01:25:40.134 35864 kbps 01:26:43.031 159947 bytes 789656 bytes 01:31:04.417
19 1:31:18.890 0:06:14.916 32236 kbps 46567 kbps 01:34:50.434 37734 kbps 01:34:48.891 35350 kbps 01:32:03.434 168066 bytes 893085 bytes 01:34:05.348
20 1:37:33.806 0:07:45.131 31799 kbps 52622 kbps 01:38:12.428 38771 kbps 01:43:57.731 35635 kbps 01:43:22.946 165786 bytes 804655 bytes 01:42:02.366
21 1:45:18.937 0:05:06.180 27451 kbps 47690 kbps 01:47:08.547 36435 kbps 01:45:25.319 34213 kbps 01:45:20.272 143118 bytes 698880 bytes 01:47:39.703
22 1:50:25.118 0:02:25.979 30511 kbps 45405 kbps 01:50:32.042 37535 kbps 01:50:30.999 34764 kbps 01:51:44.531 159072 bytes 746895 bytes 01:51:34.354
23 1:52:51.097 0:02:23.101 32358 kbps 53892 kbps 01:53:18.333 38188 kbps 01:53:17.165 35603 kbps 01:53:51.616 168698 bytes 726810 bytes 01:55:02.061
24 1:55:14.198 0:05:39.380 31830 kbps 50399 kbps 01:59:39.213 38295 kbps 01:56:32.485 35733 kbps 01:57:38.342 165948 bytes 891362 bytes 01:56:34.487
25 2:00:53.579 0:03:37.675 27962 kbps 61030 kbps 02:04:29.086 36823 kbps 02:01:58.519 34436 kbps 02:01:55.725 145782 bytes 968648 bytes 02:04:29.128
26 2:04:31.255 0:00:01.001 77 kbps 0 kbps 00:00:00.000 0 kbps 00:00:00.000 0 kbps 00:00:00.000 419 bytes 528 bytes 02:04:32.214

STREAM DIAGNOSTICS:

File PID Type Codec Language Seconds Bitrate Bytes Packets
---- --- ---- ----- -------- -------------- -------------- ------------- -----
00005.M2TS 4113 (0x1011) 0x1B AVC 7472.131 29930 27954904164 152033185
00005.M2TS 4352 (0x1100) 0x80 LPCM jpn (Japanese) 7472.131 2310 2157990132 11955624
00005.M2TS 4353 (0x1101) 0x86 DTS-HD MA jpn (Japanese) 7472.131 4730 4417972632 25175464
00005.M2TS 4354 (0x1102) 0x81 AC3 eng (English) 7472.131 448 418448128 2335090
00005.M2TS 4355 (0x1103) 0x82 DTS rus (Russian) 7472.131 755 704728150 4203150
00005.M2TS 4356 (0x1104) 0x82 DTS-ES rus (Russian) 7472.131 755 704729156 4203156
00005.M2TS 4357 (0x1105) 0x82 DTS-ES rus (Russian) 7472.131 755 704729156 4203156
00005.M2TS 4358 (0x1106) 0x82 DTS-ES rus (Russian) 7472.131 755 704729156 4203156
00005.M2TS 4359 (0x1107) 0x81 AC3 rus (Russian) 7472.131 192 179334912 1167545
00005.M2TS 4360 (0x1108) 0x82 DTS-ES rus (Russian) 7472.131 755 704729156 4203156
00005.M2TS 4361 (0x1109) 0x81 AC3 ukr (Ukrainian) 7472.131 192 179334912 1167545
00005.M2TS 4608 (0x1200) 0x90 PGS jpn (Japanese) 7472.131 23 21495173 127939
00005.M2TS 4609 (0x1201) 0x90 PGS eng (English) 7472.131 25 22918650 132493
00005.M2TS 4610 (0x1202) 0x90 PGS rus (Russian) 7472.131 16 14988151 88740
00005.M2TS 4611 (0x1203) 0x90 PGS rus (Russian) 7472.131 18 17052557 100395
00005.M2TS 4612 (0x1204) 0x90 PGS ukr (Ukrainian) 7472.131 15 14423858 85173
<pre>
<---- END FORUMS PASTE ---->

QUICK SUMMARY:

Disc Title: Sen to Chihiro no Kamikakushi Disc 1Disc Size: 41 545 331 474 bytesProtection: AACSBD-Java: NoPlaylist: 00002.MPLSSize: 41 401 982 976 bytesLength: 2:04:32.256Total Bitrate: 44.33 MbpsVideo: MPEG-4 AVC Video / 29929 kbps / 1080p / 23.976 fps / 16:9 / High Profile 4.1Audio: Japanese / LPCM Audio / 2.0 / 48 kHz / 2304 kbps / 24-bitAudio: Japanese / DTS-HD Master Audio / 6.1 / 48 kHz / 4730 kbps / 24-bit (DTS Core: 6.1-ES / 48 kHz / 1509 kbps / 24-bit)Audio: English / Dolby Digital Audio / 5.1 / 48 kHz / 448 kbpsAudio: Russian / DTS Audio / 5.1 / 48 kHz / 768 kbps / 24-bitAudio: Russian / DTS-ES Audio / 6.1-ES / 48 kHz / 768 kbps / 24-bitAudio: Russian / DTS-ES Audio / 6.1-ES / 48 kHz / 768 kbps / 24-bitAudio: Russian / DTS-ES Audio / 6.1-ES / 48 kHz / 768 kbps / 24-bitAudio: Russian / Dolby Digital Audio / 2.0 / 48 kHz / 192 kbps / DN -4dBAudio: Russian / DTS-ES Audio / 6.1-ES / 48 kHz / 768 kbps / 24-bitAudio: Ukrainian / Dolby Digital Audio / 2.0 / 48 kHz / 192 kbps / DN -4dBSubtitle: Japanese / 23.013 kbpsSubtitle: English / 24.537 kbpsSubtitle: Russian / 16.047 kbpsSubtitle: Russian / 18.257 kbpsSubtitle: Ukrainian / 15.443 kbps

********************PLAYLIST: 00001.MPLS********************

<--- BEGIN FORUMS PASTE --->
</pre>
Total Video
Title Codec Length Movie Size Disc Size Bitrate Bitrate Main Audio Track Secondary Audio Track
----- ------ ------- -------------- -------------- ------- ------- ------------------ ---------------------
00001.MPLS MPEG-2 0:03:23 88215552 41545331474 3.47 1.67
DISC INFO:

Disc Title: Sen to Chihiro no Kamikakushi Disc 1
Disc Size: 41545331474 bytes
Protection: AACS
BD-Java: No
BDInfo: 0.5.8

PLAYLIST REPORT:

Name: 00001.MPLS
Length: 0:03:23.202 (h:m:s.ms)
Size: 88215552 bytes
Total Bitrate: 3.47 Mbps

VIDEO:

Codec Bitrate Description
----- ------- -----------
MPEG-2 Video 1674 kbps 1080p / 23.976 fps / 16:9

FILES:

Name Time In Length Size Total Bitrate
---- ------- ------ ---- -------------
00004.M2TS 0:00:00.000 0:00:01.000 526464 2149
00004.M2TS 0:00:01.000 0:00:01.000 525120 2143
00004.M2TS 0:00:02.001 0:00:01.001 315264 1287
00004.M2TS 0:00:03.003 0:00:01.000 478848 1954
00004.M2TS 0:00:04.004 0:00:01.000 487872 1991
00004.M2TS 0:00:05.004 0:00:01.000 422208 1723
00004.M2TS 0:00:06.005 0:00:01.000 444288 1813
00004.M2TS 0:00:07.006 0:00:01.001 511488 2087
00004.M2TS 0:00:08.008 0:00:01.000 440064 1796
00004.M2TS 0:00:09.009 0:00:01.000 437760 1787
00004.M2TS 0:00:10.009 0:00:01.000 486912 1987
00004.M2TS 0:00:11.010 0:00:01.000 467904 1910
00004.M2TS 0:00:12.011 0:00:01.001 486528 1986
00004.M2TS 0:00:13.013 0:00:01.000 463104 1890
00004.M2TS 0:00:14.014 0:00:01.000 422400 1724
00004.M2TS 0:00:15.014 0:00:01.000 486144 1984
00004.M2TS 0:00:16.015 0:00:01.001 428352 1748
00004.M2TS 0:00:17.017 0:00:01.000 438336 1789
00004.M2TS 0:00:18.018 0:00:01.000 412416 1683
00004.M2TS 0:00:19.019 0:00:01.000 452352 1846
00004.M2TS 0:00:20.019 0:00:01.000 437376 1785
00004.M2TS 0:00:21.020 0:00:01.001 91776 375
00004.M2TS 0:00:22.022 0:00:01.000 294720 1203
00004.M2TS 0:00:23.023 0:00:01.000 464256 1895
00004.M2TS 0:00:24.024 0:00:01.000 444096 1812
00004.M2TS 0:00:25.024 0:00:01.000 453888 1852
00004.M2TS 0:00:26.025 0:00:01.001 443712 1811
00004.M2TS 0:00:27.027 0:00:01.000 418368 1707
00004.M2TS 0:00:28.028 0:00:01.000 445632 1819
00004.M2TS 0:00:29.028 0:00:01.000 452160 1845
00004.M2TS 0:00:30.029 0:00:01.000 464064 1894
00004.M2TS 0:00:31.030 0:00:01.001 446784 1823
00004.M2TS 0:00:32.032 0:00:01.000 433920 1771
00004.M2TS 0:00:33.033 0:00:01.000 434112 1772
00004.M2TS 0:00:34.033 0:00:01.000 470592 1921
00004.M2TS 0:00:35.034 0:00:01.000 524928 2142
00004.M2TS 0:00:36.035 0:00:01.001 446400 1822
00004.M2TS 0:00:37.037 0:00:01.000 457920 1869
00004.M2TS 0:00:38.038 0:00:01.000 465984 1902
00004.M2TS 0:00:39.038 0:00:01.000 446208 1821
00004.M2TS 0:00:40.039 0:00:01.001 423552 1729
00004.M2TS 0:00:41.041 0:00:01.000 426048 1739
00004.M2TS 0:00:42.042 0:00:01.000 446400 1822
00004.M2TS 0:00:43.043 0:00:01.000 451392 1842
00004.M2TS 0:00:44.043 0:00:01.000 451584 1843
00004.M2TS 0:00:45.044 0:00:01.001 467136 1906
00004.M2TS 0:00:46.046 0:00:01.000 478080 1951
00004.M2TS 0:00:47.047 0:00:01.000 442560 1806
00004.M2TS 0:00:48.048 0:00:01.000 459840 1877
00004.M2TS 0:00:49.048 0:00:01.000 452352 1846
00004.M2TS 0:00:50.049 0:00:01.001 505536 2063
00004.M2TS 0:00:51.051 0:00:01.000 467712 1909
00004.M2TS 0:00:52.052 0:00:01.000 505728 2064
00004.M2TS 0:00:53.053 0:00:01.000 326976 1334
00004.M2TS 0:00:54.053 0:00:01.000 93120 380
00004.M2TS 0:00:55.054 0:00:01.001 277632 1133
00004.M2TS 0:00:56.056 0:00:01.000 443904 1812
00004.M2TS 0:00:57.057 0:00:01.000 441600 1802
00004.M2TS 0:00:58.057 0:00:01.000 392064 1600
00004.M2TS 0:00:59.058 0:00:01.000 399936 1632
00004.M2TS 0:01:00.059 0:00:01.001 434112 1772
00004.M2TS 0:01:01.061 0:00:01.000 466560 1904
00004.M2TS 0:01:02.062 0:00:01.000 460992 1881
00004.M2TS 0:01:03.062 0:00:01.000 435840 1779
00004.M2TS 0:01:04.063 0:00:01.001 418944 1710
00004.M2TS 0:01:05.065 0:00:01.000 465024 1898
00004.M2TS 0:01:06.066 0:00:01.000 471744 1925
00004.M2TS 0:01:07.067 0:00:01.000 502272 2050
00004.M2TS 0:01:08.067 0:00:01.000 500160 2041
00004.M2TS 0:01:09.068 0:00:01.001 455424 1859
00004.M2TS 0:01:10.070 0:00:01.000 487872 1991
00004.M2TS 0:01:11.071 0:00:01.000 512256 2091
00004.M2TS 0:01:12.072 0:00:01.000 426432 1740
00004.M2TS 0:01:13.072 0:00:01.000 469056 1914
00004.M2TS 0:01:14.073 0:00:01.001 448896 1832
00004.M2TS 0:01:15.075 0:00:01.000 471744 1925
00004.M2TS 0:01:16.076 0:00:01.000 463680 1892
00004.M2TS 0:01:17.077 0:00:01.000 348480 1422
00004.M2TS 0:01:18.077 0:00:01.000 93504 382
00004.M2TS 0:01:19.078 0:00:01.001 280512 1145
00004.M2TS 0:01:20.080 0:00:01.000 453696 1852
00004.M2TS 0:01:21.081 0:00:01.000 399552 1631
00004.M2TS 0:01:22.081 0:00:01.000 418560 1708
00004.M2TS 0:01:23.082 0:00:01.000 442752 1807
00004.M2TS 0:01:24.083 0:00:01.001 494592 2018
00004.M2TS 0:01:25.085 0:00:01.000 494208 2017
00004.M2TS 0:01:26.086 0:00:01.000 439104 1792
00004.M2TS 0:01:27.086 0:00:01.000 419136 1711
00004.M2TS 0:01:28.087 0:00:01.001 494208 2017
00004.M2TS 0:01:29.089 0:00:01.000 461184 1882
00004.M2TS 0:01:30.090 0:00:01.000 428736 1750
00004.M2TS 0:01:31.091 0:00:01.000 471168 1923
00004.M2TS 0:01:32.091 0:00:01.000 453120 1849
00004.M2TS 0:01:33.092 0:00:01.001 445440 1818
00004.M2TS 0:01:34.094 0:00:01.000 475584 1941
00004.M2TS 0:01:35.095 0:00:01.000 470208 1919
00004.M2TS 0:01:36.096 0:00:01.000 388800 1587
00004.M2TS 0:01:37.096 0:00:01.000 93312 381
00004.M2TS 0:01:38.097 0:00:01.001 302016 1233
00004.M2TS 0:01:39.099 0:00:01.000 493056 2012
00004.M2TS 0:01:40.100 0:00:01.000 503616 2055
00004.M2TS 0:01:41.101 0:00:01.000 469824 1917
00004.M2TS 0:01:42.101 0:00:01.000 456768 1864
00004.M2TS 0:01:43.102 0:00:01.001 478464 1953
00004.M2TS 0:01:44.104 0:00:01.000 441984 1804
00004.M2TS 0:01:45.105 0:00:01.000 473088 1931
00004.M2TS 0:01:46.106 0:00:01.000 427008 1743
00004.M2TS 0:01:47.106 0:00:01.000 461184 1882
00004.M2TS 0:01:48.107 0:00:01.001 461568 1884
00004.M2TS 0:01:49.109 0:00:01.000 439296 1793
00004.M2TS 0:01:50.110 0:00:01.000 438912 1791
00004.M2TS 0:01:51.111 0:00:01.000 474048 1935
00004.M2TS 0:01:52.111 0:00:01.001 451968 1844
00004.M2TS 0:01:53.113 0:00:01.000 462912 1889
00004.M2TS 0:01:54.114 0:00:01.000 466560 1904
00004.M2TS 0:01:55.115 0:00:01.000 464064 1894
00004.M2TS 0:01:56.115 0:00:01.000 437760 1787
00004.M2TS 0:01:57.116 0:00:01.001 435264 1776
00004.M2TS 0:01:58.118 0:00:01.000 490560 2002
00004.M2TS 0:01:59.119 0:00:01.000 451200 1841
00004.M2TS 0:02:00.120 0:00:01.000 429312 1752
00004.M2TS 0:02:01.120 0:00:01.000 446016 1820
00004.M2TS 0:02:02.121 0:00:01.001 432000 1763
00004.M2TS 0:02:03.123 0:00:01.000 435840 1779
00004.M2TS 0:02:04.124 0:00:01.000 269568 1100
00004.M2TS 0:02:05.125 0:00:01.000 93696 382
00004.M2TS 0:02:06.125 0:00:01.000 334656 1366
00004.M2TS 0:02:07.126 0:00:01.001 491328 2005
00004.M2TS 0:02:08.128 0:00:01.000 459648 1876
00004.M2TS 0:02:09.129 0:00:01.000 485184 1980
00004.M2TS 0:02:10.130 0:00:01.000 458496 1871
00004.M2TS 0:02:11.130 0:00:01.000 434112 1772
00004.M2TS 0:02:12.131 0:00:01.001 417984 1706
00004.M2TS 0:02:13.133 0:00:01.000 449280 1834
00004.M2TS 0:02:14.134 0:00:01.000 492288 2009
00004.M2TS 0:02:15.135 0:00:01.000 454080 1853
00004.M2TS 0:02:16.135 0:00:01.000 448704 1831
00004.M2TS 0:02:17.136 0:00:01.001 470784 1921
00004.M2TS 0:02:18.138 0:00:01.000 470208 1919
00004.M2TS 0:02:19.139 0:00:01.000 444480 1814
00004.M2TS 0:02:20.139 0:00:01.000 467712 1909
00004.M2TS 0:02:21.140 0:00:01.001 460992 1881
00004.M2TS 0:02:22.142 0:00:01.000 460032 1877
00004.M2TS 0:02:23.143 0:00:01.000 436224 1780
00004.M2TS 0:02:24.144 0:00:01.000 404928 1653
00004.M2TS 0:02:25.144 0:00:01.000 434496 1773
00004.M2TS 0:02:26.145 0:00:01.001 437952 1787
00004.M2TS 0:02:27.147 0:00:01.000 463680 1892
00004.M2TS 0:02:28.148 0:00:01.000 460800 1881
00004.M2TS 0:02:29.149 0:00:01.000 427584 1745
00004.M2TS 0:02:30.149 0:00:01.000 469440 1916
00004.M2TS 0:02:31.150 0:00:01.001 491712 2007
00004.M2TS 0:02:32.152 0:00:01.000 463488 1892
00004.M2TS 0:02:33.153 0:00:01.000 499584 2039
00004.M2TS 0:02:34.154 0:00:01.000 448704 1831
00004.M2TS 0:02:35.154 0:00:01.000 127872 522
00004.M2TS 0:02:36.155 0:00:01.001 316032 1290
00004.M2TS 0:02:37.157 0:00:01.000 480576 1961
00004.M2TS 0:02:38.158 0:00:01.000 461952 1885
00004.M2TS 0:02:39.159 0:00:01.000 444672 1815
00004.M2TS 0:02:40.159 0:00:01.000 478080 1951
00004.M2TS 0:02:41.160 0:00:01.001 474240 1935
00004.M2TS 0:02:42.162 0:00:01.000 450432 1838
00004.M2TS 0:02:43.163 0:00:01.000 441792 1803
00004.M2TS 0:02:44.163 0:00:01.000 430272 1756
00004.M2TS 0:02:45.164 0:00:01.001 446400 1822
00004.M2TS 0:02:46.166 0:00:01.000 456960 1865
00004.M2TS 0:02:47.167 0:00:01.000 428544 1749
00004.M2TS 0:02:48.168 0:00:01.000 436416 1781
00004.M2TS 0:02:49.168 0:00:01.000 426240 1739
00004.M2TS 0:02:50.169 0:00:01.001 418560 1708
00004.M2TS 0:02:51.171 0:00:01.000 444288 1813
00004.M2TS 0:02:52.172 0:00:01.000 473088 1931
00004.M2TS 0:02:53.173 0:00:01.000 472896 1930
00004.M2TS 0:02:54.173 0:00:01.000 446976 1824
00004.M2TS 0:02:55.174 0:00:01.001 470976 1922
00004.M2TS 0:02:56.176 0:00:01.000 414720 1692
00004.M2TS 0:02:57.177 0:00:01.000 92928 379
00004.M2TS 0:02:58.178 0:00:01.000 262080 1070
00004.M2TS 0:02:59.178 0:00:01.000 390912 1595
00004.M2TS 0:03:00.179 0:00:01.001 421248 1719
00004.M2TS 0:03:01.181 0:00:01.000 484608 1978
00004.M2TS 0:03:02.182 0:00:01.000 461184 1882
00004.M2TS 0:03:03.183 0:00:01.000 497472 2030
00004.M2TS 0:03:04.183 0:00:01.000 483072 1971
00004.M2TS 0:03:05.184 0:00:01.001 442752 1807
00004.M2TS 0:03:06.186 0:00:01.000 445248 1817
00004.M2TS 0:03:07.187 0:00:01.000 409536 1671
00004.M2TS 0:03:08.188 0:00:01.000 460416 1879
00004.M2TS 0:03:09.188 0:00:01.001 465216 1899
00004.M2TS 0:03:10.190 0:00:01.000 439872 1795
00004.M2TS 0:03:11.191 0:00:01.000 452928 1848
00004.M2TS 0:03:12.192 0:00:01.000 466368 1903
00004.M2TS 0:03:13.192 0:00:01.000 447168 1825
00004.M2TS 0:03:14.193 0:00:01.001 471360 1924
00004.M2TS 0:03:15.195 0:00:01.000 459072 1873
00004.M2TS 0:03:16.196 0:00:01.000 368064 1502
00004.M2TS 0:03:17.197 0:00:01.000 402432 1642
00004.M2TS 0:03:18.197 0:00:01.000 505152 2062
00004.M2TS 0:03:19.198 0:00:01.001 352320 1438
00004.M2TS 0:03:20.200 0:00:01.000 421632 1721
00004.M2TS 0:03:21.201 0:00:01.000 380736 1554
00004.M2TS 0:03:22.202 0:00:01.000 682944 2787

CHAPTERS:

Number Time In Length Avg Video Rate Max 1-Sec Rate Max 1-Sec Time Max 5-Sec Rate Max 5-Sec Time Max 10Sec Rate Max 10Sec Time Avg Frame Size Max Frame Size Max Frame Time
------ ------- ------ -------------- -------------- -------------- -------------- -------------- -------------- -------------- -------------- -------------- --------------
1 0:00:00.000 0:00:01.000 7948 kbps 3971 kbps 00:00:00.959 0 kbps 00:00:00.000 0 kbps 00:00:00.000 497264 bytes 497692 bytes 00:00:00.959
2 0:00:01.000 0:00:01.000 2367 kbps 2367 kbps 00:00:01.960 0 kbps 00:00:00.000 0 kbps 00:00:00.000 296141 bytes 296141 bytes 00:00:02.961
3 0:00:02.001 0:00:01.001 3616 kbps 3616 kbps 00:00:02.961 0 kbps 00:00:00.000 0 kbps 00:00:00.000 452444 bytes 452444 bytes 00:00:03.962
4 0:00:03.003 0:00:01.000 3685 kbps 3685 kbps 00:00:03.962 0 kbps 00:00:00.000 0 kbps 00:00:00.000 461147 bytes 461147 bytes 00:00:04.963
5 0:00:04.004 0:00:01.000 3186 kbps 3186 kbps 00:00:04.963 0 kbps 00:00:00.000 0 kbps 00:00:00.000 398625 bytes 398625 bytes 00:00:05.964
6 0:00:05.004 0:00:01.000 3351 kbps 3351 kbps 00:00:05.964 0 kbps 00:00:00.000 0 kbps 00:00:00.000 419331 bytes 419331 bytes 00:00:06.965
7 0:00:06.005 0:00:01.000 3866 kbps 3866 kbps 00:00:06.965 0 kbps 00:00:00.000 0 kbps 00:00:00.000 483724 bytes 483724 bytes 00:00:07.966
8 0:00:07.006 0:00:01.001 3320 kbps 3320 kbps 00:00:07.966 0 kbps 00:00:00.000 0 kbps 00:00:00.000 415400 bytes 415400 bytes 00:00:08.967
9 0:00:08.008 0:00:01.000 3303 kbps 3303 kbps 00:00:08.967 0 kbps 00:00:00.000 0 kbps 00:00:00.000 413241 bytes 413241 bytes 00:00:09.968
10 0:00:09.009 0:00:01.000 3679 kbps 3679 kbps 00:00:09.968 0 kbps 00:00:00.000 0 kbps 00:00:00.000 460332 bytes 460332 bytes 00:00:10.969
11 0:00:10.009 0:00:01.000 3536 kbps 3536 kbps 00:00:10.969 0 kbps 00:00:00.000 0 kbps 00:00:00.000 442431 bytes 442431 bytes 00:00:11.970
12 0:00:11.010 0:00:01.000 3676 kbps 3676 kbps 00:00:11.970 0 kbps 00:00:00.000 0 kbps 00:00:00.000 459942 bytes 459942 bytes 00:00:12.971
13 0:00:12.011 0:00:01.001 3496 kbps 3496 kbps 00:00:12.971 0 kbps 00:00:00.000 0 kbps 00:00:00.000 437442 bytes 437442 bytes 00:00:13.972
14 0:00:13.013 0:00:01.000 3187 kbps 3187 kbps 00:00:13.972 0 kbps 00:00:00.000 0 kbps 00:00:00.000 398815 bytes 398815 bytes 00:00:14.973
15 0:00:14.014 0:00:01.000 3672 kbps 3672 kbps 00:00:14.973 0 kbps 00:00:00.000 0 kbps 00:00:00.000 459464 bytes 459464 bytes 00:00:15.974
16 0:00:15.014 0:00:01.000 3232 kbps 3232 kbps 00:00:15.974 0 kbps 00:00:00.000 0 kbps 00:00:00.000 404352 bytes 404352 bytes 00:00:16.975
17 0:00:16.015 0:00:01.001 3306 kbps 3306 kbps 00:00:16.975 0 kbps 00:00:00.000 0 kbps 00:00:00.000 413611 bytes 413611 bytes 00:00:17.976
18 0:00:17.017 0:00:01.000 3108 kbps 3108 kbps 00:00:17.976 0 kbps 00:00:00.000 0 kbps 00:00:00.000 388949 bytes 388949 bytes 00:00:18.977
19 0:00:18.018 0:00:01.000 3416 kbps 3416 kbps 00:00:18.977 0 kbps 00:00:00.000 0 kbps 00:00:00.000 427434 bytes 427434 bytes 00:00:19.978
20 0:00:19.019 0:00:01.000 3300 kbps 3300 kbps 00:00:19.978 0 kbps 00:00:00.000 0 kbps 00:00:00.000 412850 bytes 412850 bytes 00:00:20.979
21 0:00:20.019 0:00:01.000 652 kbps 652 kbps 00:00:20.979 0 kbps 00:00:00.000 0 kbps 00:00:00.000 81569 bytes 81569 bytes 00:00:21.980
22 0:00:21.020 0:00:01.001 2210 kbps 2210 kbps 00:00:21.980 0 kbps 00:00:00.000 0 kbps 00:00:00.000 276479 bytes 276479 bytes 00:00:22.981
23 0:00:22.022 0:00:01.000 3505 kbps 3505 kbps 00:00:22.981 0 kbps 00:00:00.000 0 kbps 00:00:00.000 438513 bytes 438513 bytes 00:00:23.982
24 0:00:23.023 0:00:01.000 3350 kbps 3350 kbps 00:00:23.982 0 kbps 00:00:00.000 0 kbps 00:00:00.000 419186 bytes 419186 bytes 00:00:24.983
25 0:00:24.024 0:00:01.000 3427 kbps 3427 kbps 00:00:24.983 0 kbps 00:00:00.000 0 kbps 00:00:00.000 428838 bytes 428838 bytes 00:00:25.984
26 0:00:25.024 0:00:01.000 3346 kbps 3346 kbps 00:00:25.984 0 kbps 00:00:00.000 0 kbps 00:00:00.000 418619 bytes 418619 bytes 00:00:26.985
27 0:00:26.025 0:00:01.001 3154 kbps 3154 kbps 00:00:26.985 0 kbps 00:00:00.000 0 kbps 00:00:00.000 394627 bytes 394627 bytes 00:00:27.986
28 0:00:27.027 0:00:01.000 3365 kbps 3365 kbps 00:00:27.986 0 kbps 00:00:00.000 0 kbps 00:00:00.000 420988 bytes 420988 bytes 00:00:28.987
29 0:00:28.028 0:00:01.000 3413 kbps 3413 kbps 00:00:28.987 0 kbps 00:00:00.000 0 kbps 00:00:00.000 427022 bytes 427022 bytes 00:00:29.988
30 0:00:29.028 0:00:01.000 3503 kbps 3503 kbps 00:00:29.988 0 kbps 00:00:00.000 0 kbps 00:00:00.000 438325 bytes 438325 bytes 00:00:30.989
31 0:00:30.029 0:00:01.000 3374 kbps 3374 kbps 00:00:30.989 0 kbps 00:00:00.000 0 kbps 00:00:00.000 422159 bytes 422159 bytes 00:00:31.990
32 0:00:31.030 0:00:01.001 3273 kbps 3273 kbps 00:00:31.990 0 kbps 00:00:00.000 0 kbps 00:00:00.000 409562 bytes 409562 bytes 00:00:32.991
33 0:00:32.032 0:00:01.000 3276 kbps 3276 kbps 00:00:32.991 0 kbps 00:00:00.000 0 kbps 00:00:00.000 409904 bytes 409904 bytes 00:00:33.992
34 0:00:33.033 0:00:01.000 3554 kbps 3554 kbps 00:00:33.992 0 kbps 00:00:00.000 0 kbps 00:00:00.000 444647 bytes 444647 bytes 00:00:34.993
35 0:00:34.033 0:00:01.000 3968 kbps 3968 kbps 00:00:34.993 0 kbps 00:00:00.000 0 kbps 00:00:00.000 496486 bytes 496486 bytes 00:00:35.994
36 0:00:35.034 0:00:01.000 3371 kbps 3371 kbps 00:00:35.994 0 kbps 00:00:00.000 0 kbps 00:00:00.000 421858 bytes 421858 bytes 00:00:36.995
37 0:00:36.035 0:00:01.001 3456 kbps 3456 kbps 00:00:36.995 0 kbps 00:00:00.000 0 kbps 00:00:00.000 432482 bytes 432482 bytes 00:00:37.996
38 0:00:37.037 0:00:01.000 3518 kbps 3518 kbps 00:00:37.996 0 kbps 00:00:00.000 0 kbps 00:00:00.000 440199 bytes 440199 bytes 00:00:38.997
39 0:00:38.038 0:00:01.000 3369 kbps 3369 kbps 00:00:38.997 0 kbps 00:00:00.000 0 kbps 00:00:00.000 421597 bytes 421597 bytes 00:00:39.998
40 0:00:39.038 0:00:01.000 3194 kbps 3194 kbps 00:00:39.998 0 kbps 00:00:00.000 0 kbps 00:00:00.000 399587 bytes 399587 bytes 00:00:40.999
41 0:00:40.039 0:00:01.001 3212 kbps 3212 kbps 00:00:40.999 0 kbps 00:00:00.000 0 kbps 00:00:00.000 401880 bytes 401880 bytes 00:00:42.000
42 0:00:41.041 0:00:01.000 3370 kbps 3370 kbps 00:00:42.000 0 kbps 00:00:00.000 0 kbps 00:00:00.000 421612 bytes 421612 bytes 00:00:43.001
43 0:00:42.042 0:00:01.000 3406 kbps 3406 kbps 00:00:43.001 0 kbps 00:00:00.000 0 kbps 00:00:00.000 426202 bytes 426202 bytes 00:00:44.002
44 0:00:43.043 0:00:01.000 3406 kbps 3406 kbps 00:00:44.002 0 kbps 00:00:00.000 0 kbps 00:00:00.000 426142 bytes 426142 bytes 00:00:45.003
45 0:00:44.043 0:00:01.000 3530 kbps 3530 kbps 00:00:45.003 0 kbps 00:00:00.000 0 kbps 00:00:00.000 441653 bytes 441653 bytes 00:00:46.004
46 0:00:45.044 0:00:01.001 3611 kbps 3611 kbps 00:00:46.004 0 kbps 00:00:00.000 0 kbps 00:00:00.000 451805 bytes 451805 bytes 00:00:47.005
47 0:00:46.046 0:00:01.000 3342 kbps 3342 kbps 00:00:47.005 0 kbps 00:00:00.000 0 kbps 00:00:00.000 418157 bytes 418157 bytes 00:00:48.006
48 0:00:47.047 0:00:01.000 3471 kbps 3471 kbps 00:00:48.006 0 kbps 00:00:00.000 0 kbps 00:00:00.000 434268 bytes 434268 bytes 00:00:49.007
49 0:00:48.048 0:00:01.000 3414 kbps 3414 kbps 00:00:49.007 0 kbps 00:00:00.000 0 kbps 00:00:00.000 427154 bytes 427154 bytes 00:00:50.008
50 0:00:49.048 0:00:01.000 3823 kbps 3823 kbps 00:00:50.008 0 kbps 00:00:00.000 0 kbps 00:00:00.000 478375 bytes 478375 bytes 00:00:51.009
51 0:00:50.049 0:00:01.001 3531 kbps 3531 kbps 00:00:51.009 0 kbps 00:00:00.000 0 kbps 00:00:00.000 441797 bytes 441797 bytes 00:00:52.010
52 0:00:51.051 0:00:01.000 3823 kbps 3823 kbps 00:00:52.010 0 kbps 00:00:00.000 0 kbps 00:00:00.000 478377 bytes 478377 bytes 00:00:53.011
53 0:00:52.052 0:00:01.000 2455 kbps 2455 kbps 00:00:53.011 0 kbps 00:00:00.000 0 kbps 00:00:00.000 307149 bytes 307149 bytes 00:00:54.012
54 0:00:53.053 0:00:01.000 663 kbps 663 kbps 00:00:54.012 0 kbps 00:00:00.000 0 kbps 00:00:00.000 82952 bytes 82952 bytes 00:00:55.013
55 0:00:54.053 0:00:01.000 2076 kbps 2076 kbps 00:00:55.013 0 kbps 00:00:00.000 0 kbps 00:00:00.000 259783 bytes 259783 bytes 00:00:56.014
56 0:00:55.054 0:00:01.001 3351 kbps 3351 kbps 00:00:56.014 0 kbps 00:00:00.000 0 kbps 00:00:00.000 419343 bytes 419343 bytes 00:00:57.015
57 0:00:56.056 0:00:01.000 3331 kbps 3331 kbps 00:00:57.015 0 kbps 00:00:00.000 0 kbps 00:00:00.000 416830 bytes 416830 bytes 00:00:58.016
58 0:00:57.057 0:00:01.000 2950 kbps 2950 kbps 00:00:58.016 0 kbps 00:00:00.000 0 kbps 00:00:00.000 369096 bytes 369096 bytes 00:00:59.017
59 0:00:58.057 0:00:01.000 3016 kbps 3016 kbps 00:00:59.017 0 kbps 00:00:00.000 0 kbps 00:00:00.000 377322 bytes 377322 bytes 00:01:00.018
60 0:00:59.058 0:00:01.000 3274 kbps 3274 kbps 00:01:00.018 0 kbps 00:00:00.000 0 kbps 00:00:00.000 409702 bytes 409702 bytes 00:01:01.019
61 0:01:00.059 0:00:01.001 3522 kbps 3522 kbps 00:01:01.019 0 kbps 00:00:00.000 0 kbps 00:00:00.000 440681 bytes 440681 bytes 00:01:02.020
62 0:01:01.061 0:00:01.000 3482 kbps 3482 kbps 00:01:02.020 0 kbps 00:00:00.000 0 kbps 00:00:00.000 435646 bytes 435646 bytes 00:01:03.021
63 0:01:02.062 0:00:01.000 3287 kbps 3287 kbps 00:01:03.021 0 kbps 00:00:00.000 0 kbps 00:00:00.000 411333 bytes 411333 bytes 00:01:04.022
64 0:01:03.062 0:00:01.000 3161 kbps 3161 kbps 00:01:04.022 0 kbps 00:00:00.000 0 kbps 00:00:00.000 395468 bytes 395468 bytes 00:01:05.023
65 0:01:04.063 0:00:01.001 3511 kbps 3511 kbps 00:01:05.023 0 kbps 00:00:00.000 0 kbps 00:00:00.000 439319 bytes 439319 bytes 00:01:06.024
66 0:01:05.065 0:00:01.000 3562 kbps 3562 kbps 00:01:06.024 0 kbps 00:00:00.000 0 kbps 00:00:00.000 445725 bytes 445725 bytes 00:01:07.025
67 0:01:06.066 0:00:01.000 3797 kbps 3797 kbps 00:01:07.025 0 kbps 00:00:00.000 0 kbps 00:00:00.000 475121 bytes 475121 bytes 00:01:08.026
68 0:01:07.067 0:00:01.000 3780 kbps 3780 kbps 00:01:08.026 0 kbps 00:00:00.000 0 kbps 00:00:00.000 473013 bytes 473013 bytes 00:01:09.027
69 0:01:08.067 0:00:01.000 3438 kbps 3438 kbps 00:01:09.027 0 kbps 00:00:00.000 0 kbps 00:00:00.000 430131 bytes 430131 bytes 00:01:10.028
70 0:01:09.068 0:00:01.001 3688 kbps 3688 kbps 00:01:10.028 0 kbps 00:00:00.000 0 kbps 00:00:00.000 461456 bytes 461456 bytes 00:01:11.029
71 0:01:10.070 0:00:01.000 3871 kbps 3871 kbps 00:01:11.029 0 kbps 00:00:00.000 0 kbps 00:00:00.000 484397 bytes 484397 bytes 00:01:12.030
72 0:01:11.071 0:00:01.000 3216 kbps 3216 kbps 00:01:12.030 0 kbps 00:00:00.000 0 kbps 00:00:00.000 402360 bytes 402360 bytes 00:01:13.031
73 0:01:12.072 0:00:01.000 3545 kbps 3545 kbps 00:01:13.031 0 kbps 00:00:00.000 0 kbps 00:00:00.000 443549 bytes 443549 bytes 00:01:14.032
74 0:01:13.072 0:00:01.000 3388 kbps 3388 kbps 00:01:14.032 0 kbps 00:00:00.000 0 kbps 00:00:00.000 423885 bytes 423885 bytes 00:01:15.033
75 0:01:14.073 0:00:01.001 3560 kbps 3560 kbps 00:01:15.033 0 kbps 00:00:00.000 0 kbps 00:00:00.000 445450 bytes 445450 bytes 00:01:16.034
76 0:01:15.075 0:00:01.000 3503 kbps 3503 kbps 00:01:16.034 0 kbps 00:00:00.000 0 kbps 00:00:00.000 438282 bytes 438282 bytes 00:01:17.035
77 0:01:16.076 0:00:01.000 2618 kbps 2618 kbps 00:01:17.035 0 kbps 00:00:00.000 0 kbps 00:00:00.000 327525 bytes 327525 bytes 00:01:18.036
78 0:01:17.077 0:00:01.000 666 kbps 666 kbps 00:01:18.036 0 kbps 00:00:00.000 0 kbps 00:00:00.000 83304 bytes 83304 bytes 00:01:19.037
79 0:01:18.077 0:00:01.000 2100 kbps 2100 kbps 00:01:19.037 0 kbps 00:00:00.000 0 kbps 00:00:00.000 262754 bytes 262754 bytes 00:01:20.038
80 0:01:19.078 0:00:01.001 3422 kbps 3422 kbps 00:01:20.038 0 kbps 00:00:00.000 0 kbps 00:00:00.000 428231 bytes 428231 bytes 00:01:21.039
81 0:01:20.080 0:00:01.000 3012 kbps 3012 kbps 00:01:21.039 0 kbps 00:00:00.000 0 kbps 00:00:00.000 376852 bytes 376852 bytes 00:01:22.040
82 0:01:21.081 0:00:01.000 3155 kbps 3155 kbps 00:01:22.040 0 kbps 00:00:00.000 0 kbps 00:00:00.000 394736 bytes 394736 bytes 00:01:23.041
83 0:01:22.081 0:00:01.000 3341 kbps 3341 kbps 00:01:23.041 0 kbps 00:00:00.000 0 kbps 00:00:00.000 417984 bytes 417984 bytes 00:01:24.042
84 0:01:23.082 0:00:01.000 3738 kbps 3738 kbps 00:01:24.042 0 kbps 00:00:00.000 0 kbps 00:00:00.000 467759 bytes 467759 bytes 00:01:25.043
85 0:01:24.083 0:00:01.001 3735 kbps 3735 kbps 00:01:25.043 0 kbps 00:00:00.000 0 kbps 00:00:00.000 467296 bytes 467296 bytes 00:01:26.044
86 0:01:25.085 0:00:01.000 3312 kbps 3312 kbps 00:01:26.044 0 kbps 00:00:00.000 0 kbps 00:00:00.000 414353 bytes 414353 bytes 00:01:27.045
87 0:01:26.086 0:00:01.000 3163 kbps 3163 kbps 00:01:27.045 0 kbps 00:00:00.000 0 kbps 00:00:00.000 395709 bytes 395709 bytes 00:01:28.046
88 0:01:27.086 0:00:01.000 3734 kbps 3734 kbps 00:01:28.046 0 kbps 00:00:00.000 0 kbps 00:00:00.000 467219 bytes 467219 bytes 00:01:29.047
89 0:01:28.087 0:00:01.001 3479 kbps 3479 kbps 00:01:29.047 0 kbps 00:00:00.000 0 kbps 00:00:00.000 435359 bytes 435359 bytes 00:01:30.048
90 0:01:29.089 0:00:01.000 3236 kbps 3236 kbps 00:01:30.048 0 kbps 00:00:00.000 0 kbps 00:00:00.000 404855 bytes 404855 bytes 00:01:31.049
91 0:01:30.090 0:00:01.000 3558 kbps 3558 kbps 00:01:31.049 0 kbps 00:00:00.000 0 kbps 00:00:00.000 445168 bytes 445168 bytes 00:01:32.050
92 0:01:31.091 0:00:01.000 3417 kbps 3417 kbps 00:01:32.050 0 kbps 00:00:00.000 0 kbps 00:00:00.000 427606 bytes 427606 bytes 00:01:33.051
93 0:01:32.091 0:00:01.000 3364 kbps 3364 kbps 00:01:33.051 0 kbps 00:00:00.000 0 kbps 00:00:00.000 420961 bytes 420961 bytes 00:01:34.052
94 0:01:33.092 0:00:01.001 3592 kbps 3592 kbps 00:01:34.052 0 kbps 00:00:00.000 0 kbps 00:00:00.000 449446 bytes 449446 bytes 00:01:35.053
95 0:01:34.094 0:00:01.000 3553 kbps 3553 kbps 00:01:35.053 0 kbps 00:00:00.000 0 kbps 00:00:00.000 444559 bytes 444559 bytes 00:01:36.054
96 0:01:35.095 0:00:01.000 2928 kbps 2928 kbps 00:01:36.054 0 kbps 00:00:00.000 0 kbps 00:00:00.000 366319 bytes 366319 bytes 00:01:37.055
97 0:01:36.096 0:00:01.000 664 kbps 664 kbps 00:01:37.055 0 kbps 00:00:00.000 0 kbps 00:00:00.000 83107 bytes 83107 bytes 00:01:38.056
98 0:01:37.096 0:00:01.000 2263 kbps 2263 kbps 00:01:38.056 0 kbps 00:00:00.000 0 kbps 00:00:00.000 283165 bytes 283165 bytes 00:01:39.057
99 0:01:38.097 0:00:01.001 3725 kbps 3725 kbps 00:01:39.057 0 kbps 00:00:00.000 0 kbps 00:00:00.000 466119 bytes 466119 bytes 00:01:40.058
100 0:01:39.099 0:00:01.000 3804 kbps 3804 kbps 00:01:40.058 0 kbps 00:00:00.000 0 kbps 00:00:00.000 476006 bytes 476006 bytes 00:01:41.059
101 0:01:40.100 0:00:01.000 3551 kbps 3551 kbps 00:01:41.059 0 kbps 00:00:00.000 0 kbps 00:00:00.000 444277 bytes 444277 bytes 00:01:42.060
102 0:01:41.101 0:00:01.000 3447 kbps 3447 kbps 00:01:42.060 0 kbps 00:00:00.000 0 kbps 00:00:00.000 431300 bytes 431300 bytes 00:01:43.061
103 0:01:42.101 0:00:01.000 3614 kbps 3614 kbps 00:01:43.061 0 kbps 00:00:00.000 0 kbps 00:00:00.000 452173 bytes 452173 bytes 00:01:44.062
104 0:01:43.102 0:00:01.001 3338 kbps 3338 kbps 00:01:44.062 0 kbps 00:00:00.000 0 kbps 00:00:00.000 417632 bytes 417632 bytes 00:01:45.063
105 0:01:44.104 0:00:01.000 3572 kbps 3572 kbps 00:01:45.063 0 kbps 00:00:00.000 0 kbps 00:00:00.000 446934 bytes 446934 bytes 00:01:46.064
106 0:01:45.105 0:00:01.000 3220 kbps 3220 kbps 00:01:46.064 0 kbps 00:00:00.000 0 kbps 00:00:00.000 402840 bytes 402840 bytes 00:01:47.065
107 0:01:46.106 0:00:01.000 3483 kbps 3483 kbps 00:01:47.065 0 kbps 00:00:00.000 0 kbps 00:00:00.000 435761 bytes 435761 bytes 00:01:48.066
108 0:01:47.106 0:00:01.000 3485 kbps 3485 kbps 00:01:48.066 0 kbps 00:00:00.000 0 kbps 00:00:00.000 436025 bytes 436025 bytes 00:01:49.067
109 0:01:48.107 0:00:01.001 3312 kbps 3312 kbps 00:01:49.067 0 kbps 00:00:00.000 0 kbps 00:00:00.000 414428 bytes 414428 bytes 00:01:50.068
110 0:01:49.109 0:00:01.000 3313 kbps 3313 kbps 00:01:50.068 0 kbps 00:00:00.000 0 kbps 00:00:00.000 414570 bytes 414570 bytes 00:01:51.069
111 0:01:50.110 0:00:01.000 3580 kbps 3580 kbps 00:01:51.069 0 kbps 00:00:00.000 0 kbps 00:00:00.000 447956 bytes 447956 bytes 00:01:52.070
112 0:01:51.111 0:00:01.000 3413 kbps 3413 kbps 00:01:52.070 0 kbps 00:00:00.000 0 kbps 00:00:00.000 427104 bytes 427104 bytes 00:01:53.071
113 0:01:52.111 0:00:01.001 3495 kbps 3495 kbps 00:01:53.071 0 kbps 00:00:00.000 0 kbps 00:00:00.000 437318 bytes 437318 bytes 00:01:54.072
114 0:01:53.113 0:00:01.000 3523 kbps 3523 kbps 00:01:54.072 0 kbps 00:00:00.000 0 kbps 00:00:00.000 440801 bytes 440801 bytes 00:01:55.073
115 0:01:54.114 0:00:01.000 3506 kbps 3506 kbps 00:01:55.073 0 kbps 00:00:00.000 0 kbps 00:00:00.000 438678 bytes 438678 bytes 00:01:56.074
116 0:01:55.115 0:00:01.000 3300 kbps 3300 kbps 00:01:56.074 0 kbps 00:00:00.000 0 kbps 00:00:00.000 412932 bytes 412932 bytes 00:01:57.075
117 0:01:56.115 0:00:01.000 3282 kbps 3282 kbps 00:01:57.075 0 kbps 00:00:00.000 0 kbps 00:00:00.000 410612 bytes 410612 bytes 00:01:58.076
118 0:01:57.116 0:00:01.001 3709 kbps 3709 kbps 00:01:58.076 0 kbps 00:00:00.000 0 kbps 00:00:00.000 464138 bytes 464138 bytes 00:01:59.077
119 0:01:58.118 0:00:01.000 3405 kbps 3405 kbps 00:01:59.077 0 kbps 00:00:00.000 0 kbps 00:00:00.000 426011 bytes 426011 bytes 00:02:00.078
120 0:01:59.119 0:00:01.000 3238 kbps 3238 kbps 00:02:00.078 0 kbps 00:00:00.000 0 kbps 00:00:00.000 405129 bytes 405129 bytes 00:02:01.079
121 0:02:00.120 0:00:01.000 3369 kbps 3369 kbps 00:02:01.079 0 kbps 00:00:00.000 0 kbps 00:00:00.000 421511 bytes 421511 bytes 00:02:02.080
122 0:02:01.120 0:00:01.000 3258 kbps 3258 kbps 00:02:02.080 0 kbps 00:00:00.000 0 kbps 00:00:00.000 407632 bytes 407632 bytes 00:02:03.081
123 0:02:02.121 0:00:01.001 3287 kbps 3287 kbps 00:02:03.081 0 kbps 00:00:00.000 0 kbps 00:00:00.000 411315 bytes 411315 bytes 00:02:04.082
124 0:02:03.123 0:00:01.000 2016 kbps 2016 kbps 00:02:04.082 0 kbps 00:00:00.000 0 kbps 00:00:00.000 252273 bytes 252273 bytes 00:02:05.083
125 0:02:04.124 0:00:01.000 666 kbps 666 kbps 00:02:05.083 0 kbps 00:00:00.000 0 kbps 00:00:00.000 83287 bytes 83287 bytes 00:02:06.084
126 0:02:05.125 0:00:01.000 2511 kbps 2511 kbps 00:02:06.084 0 kbps 00:00:00.000 0 kbps 00:00:00.000 314199 bytes 314199 bytes 00:02:07.085
127 0:02:06.125 0:00:01.000 3715 kbps 3715 kbps 00:02:07.085 0 kbps 00:00:00.000 0 kbps 00:00:00.000 464854 bytes 464854 bytes 00:02:08.086
128 0:02:07.126 0:00:01.001 3469 kbps 3469 kbps 00:02:08.086 0 kbps 00:00:00.000 0 kbps 00:00:00.000 434095 bytes 434095 bytes 00:02:09.087
129 0:02:08.128 0:00:01.000 3669 kbps 3669 kbps 00:02:09.087 0 kbps 00:00:00.000 0 kbps 00:00:00.000 459044 bytes 459044 bytes 00:02:10.088
130 0:02:09.129 0:00:01.000 3461 kbps 3461 kbps 00:02:10.088 0 kbps 00:00:00.000 0 kbps 00:00:00.000 433058 bytes 433058 bytes 00:02:11.089
131 0:02:10.130 0:00:01.000 3274 kbps 3274 kbps 00:02:11.089 0 kbps 00:00:00.000 0 kbps 00:00:00.000 409703 bytes 409703 bytes 00:02:12.090
132 0:02:11.130 0:00:01.000 3153 kbps 3153 kbps 00:02:12.090 0 kbps 00:00:00.000 0 kbps 00:00:00.000 394581 bytes 394581 bytes 00:02:13.091
133 0:02:12.131 0:00:01.001 3390 kbps 3390 kbps 00:02:13.091 0 kbps 00:00:00.000 0 kbps 00:00:00.000 424233 bytes 424233 bytes 00:02:14.092
134 0:02:13.133 0:00:01.000 3717 kbps 3717 kbps 00:02:14.092 0 kbps 00:00:00.000 0 kbps 00:00:00.000 465048 bytes 465048 bytes 00:02:15.093
135 0:02:14.134 0:00:01.000 3430 kbps 3430 kbps 00:02:15.093 0 kbps 00:00:00.000 0 kbps 00:00:00.000 429145 bytes 429145 bytes 00:02:16.094
136 0:02:15.135 0:00:01.000 3386 kbps 3386 kbps 00:02:16.094 0 kbps 00:00:00.000 0 kbps 00:00:00.000 423727 bytes 423727 bytes 00:02:17.095
137 0:02:16.135 0:00:01.000 3556 kbps 3556 kbps 00:02:17.095 0 kbps 00:00:00.000 0 kbps 00:00:00.000 444891 bytes 444891 bytes 00:02:18.096
138 0:02:17.136 0:00:01.001 3554 kbps 3554 kbps 00:02:18.096 0 kbps 00:00:00.000 0 kbps 00:00:00.000 444634 bytes 444634 bytes 00:02:19.097
139 0:02:18.138 0:00:01.000 3354 kbps 3354 kbps 00:02:19.097 0 kbps 00:00:00.000 0 kbps 00:00:00.000 419642 bytes 419642 bytes 00:02:20.098
140 0:02:19.139 0:00:01.000 3532 kbps 3532 kbps 00:02:20.098 0 kbps 00:00:00.000 0 kbps 00:00:00.000 441881 bytes 441881 bytes 00:02:21.099
141 0:02:20.139 0:00:01.000 3483 kbps 3483 kbps 00:02:21.099 0 kbps 00:00:00.000 0 kbps 00:00:00.000 435871 bytes 435871 bytes 00:02:22.100
142 0:02:21.140 0:00:01.001 3470 kbps 3470 kbps 00:02:22.100 0 kbps 00:00:00.000 0 kbps 00:00:00.000 434149 bytes 434149 bytes 00:02:23.101
143 0:02:22.142 0:00:01.000 3293 kbps 3293 kbps 00:02:23.101 0 kbps 00:00:00.000 0 kbps 00:00:00.000 411983 bytes 411983 bytes 00:02:24.102
144 0:02:23.143 0:00:01.000 3051 kbps 3051 kbps 00:02:24.102 0 kbps 00:00:00.000 0 kbps 00:00:00.000 381714 bytes 381714 bytes 00:02:25.103
145 0:02:24.144 0:00:01.000 3278 kbps 3278 kbps 00:02:25.103 0 kbps 00:00:00.000 0 kbps 00:00:00.000 410117 bytes 410117 bytes 00:02:26.104
146 0:02:25.144 0:00:01.000 3307 kbps 3307 kbps 00:02:26.104 0 kbps 00:00:00.000 0 kbps 00:00:00.000 413743 bytes 413743 bytes 00:02:27.105
147 0:02:26.145 0:00:01.001 3500 kbps 3500 kbps 00:02:27.105 0 kbps 00:00:00.000 0 kbps 00:00:00.000 437956 bytes 437956 bytes 00:02:28.106
148 0:02:27.147 0:00:01.000 3478 kbps 3478 kbps 00:02:28.106 0 kbps 00:00:00.000 0 kbps 00:00:00.000 435240 bytes 435240 bytes 00:02:29.107
149 0:02:28.148 0:00:01.000 3226 kbps 3226 kbps 00:02:29.107 0 kbps 00:00:00.000 0 kbps 00:00:00.000 403707 bytes 403707 bytes 00:02:30.108
150 0:02:29.149 0:00:01.000 3544 kbps 3544 kbps 00:02:30.108 0 kbps 00:00:00.000 0 kbps 00:00:00.000 443434 bytes 443434 bytes 00:02:31.109
151 0:02:30.149 0:00:01.000 3713 kbps 3713 kbps 00:02:31.109 0 kbps 00:00:00.000 0 kbps 00:00:00.000 464576 bytes 464576 bytes 00:02:32.110
152 0:02:31.150 0:00:01.001 3502 kbps 3502 kbps 00:02:32.110 0 kbps 00:00:00.000 0 kbps 00:00:00.000 438179 bytes 438179 bytes 00:02:33.111
153 0:02:32.152 0:00:01.000 3776 kbps 3776 kbps 00:02:33.111 0 kbps 00:00:00.000 0 kbps 00:00:00.000 472483 bytes 472483 bytes 00:02:34.112
154 0:02:33.153 0:00:01.000 3386 kbps 3386 kbps 00:02:34.112 0 kbps 00:00:00.000 0 kbps 00:00:00.000 423699 bytes 423699 bytes 00:02:35.113
155 0:02:34.154 0:00:01.000 931 kbps 931 kbps 00:02:35.113 0 kbps 00:00:00.000 0 kbps 00:00:00.000 116485 bytes 116485 bytes 00:02:36.114
156 0:02:35.154 0:00:01.000 2369 kbps 2369 kbps 00:02:36.114 0 kbps 00:00:00.000 0 kbps 00:00:00.000 296479 bytes 296479 bytes 00:02:37.115
157 0:02:36.155 0:00:01.001 3629 kbps 3629 kbps 00:02:37.115 0 kbps 00:00:00.000 0 kbps 00:00:00.000 454129 bytes 454129 bytes 00:02:38.116
158 0:02:37.157 0:00:01.000 3491 kbps 3491 kbps 00:02:38.116 0 kbps 00:00:00.000 0 kbps 00:00:00.000 436789 bytes 436789 bytes 00:02:39.117
159 0:02:38.158 0:00:01.000 3354 kbps 3354 kbps 00:02:39.117 0 kbps 00:00:00.000 0 kbps 00:00:00.000 419666 bytes 419666 bytes 00:02:40.118
160 0:02:39.159 0:00:01.000 3613 kbps 3613 kbps 00:02:40.118 0 kbps 00:00:00.000 0 kbps 00:00:00.000 452034 bytes 452034 bytes 00:02:41.119
161 0:02:40.159 0:00:01.000 3581 kbps 3581 kbps 00:02:41.119 0 kbps 00:00:00.000 0 kbps 00:00:00.000 448057 bytes 448057 bytes 00:02:42.120
162 0:02:41.160 0:00:01.001 3398 kbps 3398 kbps 00:02:42.120 0 kbps 00:00:00.000 0 kbps 00:00:00.000 425220 bytes 425220 bytes 00:02:43.121
163 0:02:42.162 0:00:01.000 3335 kbps 3335 kbps 00:02:43.121 0 kbps 00:00:00.000 0 kbps 00:00:00.000 417335 bytes 417335 bytes 00:02:44.122
164 0:02:43.163 0:00:01.000 3245 kbps 3245 kbps 00:02:44.122 0 kbps 00:00:00.000 0 kbps 00:00:00.000 406059 bytes 406059 bytes 00:02:45.123
165 0:02:44.163 0:00:01.000 3369 kbps 3369 kbps 00:02:45.123 0 kbps 00:00:00.000 0 kbps 00:00:00.000 421489 bytes 421489 bytes 00:02:46.124
166 0:02:45.164 0:00:01.001 3452 kbps 3452 kbps 00:02:46.124 0 kbps 00:00:00.000 0 kbps 00:00:00.000 431893 bytes 431893 bytes 00:02:47.125
167 0:02:46.166 0:00:01.000 3231 kbps 3231 kbps 00:02:47.125 0 kbps 00:00:00.000 0 kbps 00:00:00.000 404272 bytes 404272 bytes 00:02:48.126
168 0:02:47.167 0:00:01.000 3290 kbps 3290 kbps 00:02:48.126 0 kbps 00:00:00.000 0 kbps 00:00:00.000 411665 bytes 411665 bytes 00:02:49.127
169 0:02:48.168 0:00:01.000 3215 kbps 3215 kbps 00:02:49.127 0 kbps 00:00:00.000 0 kbps 00:00:00.000 402293 bytes 402293 bytes 00:02:50.128
170 0:02:49.168 0:00:01.000 3155 kbps 3155 kbps 00:02:50.128 0 kbps 00:00:00.000 0 kbps 00:00:00.000 394828 bytes 394828 bytes 00:02:51.129
171 0:02:50.169 0:00:01.001 3352 kbps 3352 kbps 00:02:51.129 0 kbps 00:00:00.000 0 kbps 00:00:00.000 419438 bytes 419438 bytes 00:02:52.130
172 0:02:51.171 0:00:01.000 3575 kbps 3575 kbps 00:02:52.130 0 kbps 00:00:00.000 0 kbps 00:00:00.000 447346 bytes 447346 bytes 00:02:53.131
173 0:02:52.172 0:00:01.000 3570 kbps 3570 kbps 00:02:53.131 0 kbps 00:00:00.000 0 kbps 00:00:00.000 446745 bytes 446745 bytes 00:02:54.132
174 0:02:53.173 0:00:01.000 3372 kbps 3372 kbps 00:02:54.132 0 kbps 00:00:00.000 0 kbps 00:00:00.000 421907 bytes 421907 bytes 00:02:55.133
175 0:02:54.173 0:00:01.000 3560 kbps 3560 kbps 00:02:55.133 0 kbps 00:00:00.000 0 kbps 00:00:00.000 445404 bytes 445404 bytes 00:02:56.134
176 0:02:55.174 0:00:01.001 3125 kbps 3125 kbps 00:02:56.134 0 kbps 00:00:00.000 0 kbps 00:00:00.000 390971 bytes 390971 bytes 00:02:57.135
177 0:02:56.176 0:00:01.000 663 kbps 663 kbps 00:02:57.135 0 kbps 00:00:00.000 0 kbps 00:00:00.000 83000 bytes 83000 bytes 00:02:58.136
178 0:02:57.177 0:00:01.000 1955 kbps 1955 kbps 00:02:58.136 0 kbps 00:00:00.000 0 kbps 00:00:00.000 244679 bytes 244679 bytes 00:02:59.137
179 0:02:58.178 0:00:01.000 2943 kbps 2943 kbps 00:02:59.137 0 kbps 00:00:00.000 0 kbps 00:00:00.000 368244 bytes 368244 bytes 00:03:00.138
180 0:02:59.178 0:00:01.000 3178 kbps 3178 kbps 00:03:00.138 0 kbps 00:00:00.000 0 kbps 00:00:00.000 397653 bytes 397653 bytes 00:03:01.139
181 0:03:00.179 0:00:01.001 3661 kbps 3661 kbps 00:03:01.139 0 kbps 00:00:00.000 0 kbps 00:00:00.000 458124 bytes 458124 bytes 00:03:02.140
182 0:03:01.181 0:00:01.000 3481 kbps 3481 kbps 00:03:02.140 0 kbps 00:00:00.000 0 kbps 00:00:00.000 435533 bytes 435533 bytes 00:03:03.141
183 0:03:02.182 0:00:01.000 3763 kbps 3763 kbps 00:03:03.141 0 kbps 00:00:00.000 0 kbps 00:00:00.000 470823 bytes 470823 bytes 00:03:04.142
184 0:03:03.183 0:00:01.000 3647 kbps 3647 kbps 00:03:04.142 0 kbps 00:00:00.000 0 kbps 00:00:00.000 456347 bytes 456347 bytes 00:03:05.143
185 0:03:04.183 0:00:01.000 3340 kbps 3340 kbps 00:03:05.143 0 kbps 00:00:00.000 0 kbps 00:00:00.000 417910 bytes 417910 bytes 00:03:06.144
186 0:03:05.184 0:00:01.001 3363 kbps 3363 kbps 00:03:06.144 0 kbps 00:00:00.000 0 kbps 00:00:00.000 420769 bytes 420769 bytes 00:03:07.145
187 0:03:06.186 0:00:01.000 3084 kbps 3084 kbps 00:03:07.145 0 kbps 00:00:00.000 0 kbps 00:00:00.000 385881 bytes 385881 bytes 00:03:08.146
188 0:03:07.187 0:00:01.000 3475 kbps 3475 kbps 00:03:08.146 0 kbps 00:00:00.000 0 kbps 00:00:00.000 434852 bytes 434852 bytes 00:03:09.147
189 0:03:08.188 0:00:01.000 3516 kbps 3516 kbps 00:03:09.147 0 kbps 00:00:00.000 0 kbps 00:00:00.000 439898 bytes 439898 bytes 00:03:10.148
190 0:03:09.188 0:00:01.001 3319 kbps 3319 kbps 00:03:10.148 0 kbps 00:00:00.000 0 kbps 00:00:00.000 415257 bytes 415257 bytes 00:03:11.149
191 0:03:10.190 0:00:01.000 3422 kbps 3422 kbps 00:03:11.149 0 kbps 00:00:00.000 0 kbps 00:00:00.000 428117 bytes 428117 bytes 00:03:12.150
192 0:03:11.191 0:00:01.000 3521 kbps 3521 kbps 00:03:12.150 0 kbps 00:00:00.000 0 kbps 00:00:00.000 440568 bytes 440568 bytes 00:03:13.151
193 0:03:12.192 0:00:01.000 3372 kbps 3372 kbps 00:03:13.151 0 kbps 00:00:00.000 0 kbps 00:00:00.000 421931 bytes 421931 bytes 00:03:14.152
194 0:03:13.192 0:00:01.000 3563 kbps 3563 kbps 00:03:14.152 0 kbps 00:00:00.000 0 kbps 00:00:00.000 445792 bytes 445792 bytes 00:03:15.153
195 0:03:14.193 0:00:01.001 3466 kbps 3466 kbps 00:03:15.153 0 kbps 00:00:00.000 0 kbps 00:00:00.000 433667 bytes 433667 bytes 00:03:16.154
196 0:03:15.195 0:00:01.000 2767 kbps 2767 kbps 00:03:16.154 0 kbps 00:00:00.000 0 kbps 00:00:00.000 346172 bytes 346172 bytes 00:03:17.155
197 0:03:16.196 0:00:01.000 3035 kbps 3035 kbps 00:03:17.155 0 kbps 00:00:00.000 0 kbps 00:00:00.000 379744 bytes 379744 bytes 00:03:18.156
198 0:03:17.197 0:00:01.000 3819 kbps 3819 kbps 00:03:18.156 0 kbps 00:00:00.000 0 kbps 00:00:00.000 477818 bytes 477818 bytes 00:03:19.157
199 0:03:18.197 0:00:01.000 2648 kbps 2648 kbps 00:03:19.157 0 kbps 00:00:00.000 0 kbps 00:00:00.000 331323 bytes 331323 bytes 00:03:20.158
200 0:03:19.198 0:00:01.001 3181 kbps 3181 kbps 00:03:20.158 0 kbps 00:00:00.000 0 kbps 00:00:00.000 397986 bytes 397986 bytes 00:03:21.159
201 0:03:20.200 0:00:01.000 2863 kbps 2863 kbps 00:03:21.159 0 kbps 00:00:00.000 0 kbps 00:00:00.000 358295 bytes 358295 bytes 00:03:22.160
202 0:03:21.201 0:00:01.000 2577 kbps 2577 kbps 00:03:22.160 0 kbps 00:00:00.000 0 kbps 00:00:00.000 322458 bytes 322458 bytes 00:03:23.161
203 0:03:22.202 0:00:01.000 2577 kbps 0 kbps 00:00:00.000 0 kbps 00:00:00.000 0 kbps 00:00:00.000 322458 bytes 322458 bytes 00:03:23.202

STREAM DIAGNOSTICS:

File PID Type Codec Language Seconds Bitrate Bytes Packets
---- --- ---- ----- -------- -------------- -------------- ------------- -----
00004.M2TS 4113 (0x1011) 0x02 MPEG-2 202.202 3294 83262683 452630
<pre>
<---- END FORUMS PASTE ---->

QUICK SUMMARY:

Disc Title: Sen to Chihiro no Kamikakushi Disc 1Disc Size: 41 545 331 474 bytesProtection: AACSBD-Java: NoPlaylist: 00001.MPLSSize: 88 215 552 bytesLength: 0:03:23.202Total Bitrate: 3.47 MbpsVideo: MPEG-2 Video / 1674 kbps / 1080p / 23.976 fps / 16:9

********************PLAYLIST: 00000.MPLS********************

<--- BEGIN FORUMS PASTE --->
</pre>
Total Video
Title Codec Length Movie Size Disc Size Bitrate Bitrate Main Audio Track Secondary Audio Track
----- ------ ------- -------------- -------------- ------- ------- ------------------ ---------------------
00000.MPLS AVC 0:01:02 41496576 41545331474 5.31 4.78 DD AC3 2.0 192Kbps
DISC INFO:

Disc Title: Sen to Chihiro no Kamikakushi Disc 1
Disc Size: 41545331474 bytes
Protection: AACS
BD-Java: No
BDInfo: 0.5.8

PLAYLIST REPORT:

Name: 00000.MPLS
Length: 0:01:02.562 (h:m:s.ms)
Size: 41496576 bytes
Total Bitrate: 5.31 Mbps

VIDEO:

Codec Bitrate Description
----- ------- -----------
MPEG-4 AVC Video 4782 kbps 1080p / 23.976 fps / 16:9 / High Profile 4.1

AUDIO:

Codec Language Bitrate Description
----- -------- ------- -----------
Dolby Digital Audio Japanese 192 kbps 2.0 / 48 kHz / 192 kbps

FILES:

Name Time In Length Size Total Bitrate
---- ------- ------ ---- -------------
00000.M2TS 0:00:00.000 0:00:31.030 28477440 7342
00001.M2TS 0:00:31.030 0:00:06.006 1357824 1809
00002.M2TS 0:00:37.037 0:00:18.518 10371072 4480
00003.M2TS 0:00:55.555 0:00:07.006 1290240 1473

CHAPTERS:

Number Time In Length Avg Video Rate Max 1-Sec Rate Max 1-Sec Time Max 5-Sec Rate Max 5-Sec Time Max 10Sec Rate Max 10Sec Time Avg Frame Size Max Frame Size Max Frame Time
------ ------- ------ -------------- -------------- -------------- -------------- -------------- -------------- -------------- -------------- -------------- --------------
1 0:00:00.000 0:00:30.029 6956 kbps 22798 kbps 00:00:28.403 9159 kbps 00:00:24.399 7967 kbps 00:00:19.394 36217 bytes 548197 bytes 00:00:10.510
2 0:00:30.029 0:00:06.006 1418 kbps 2726 kbps 00:00:34.451 1678 kbps 00:00:30.530 0 kbps 00:00:00.000 7392 bytes 164083 bytes 00:00:31.948
3 0:00:36.036 0:00:18.143 3942 kbps 11563 kbps 00:00:53.094 5101 kbps 00:00:37.495 4394 kbps 00:00:37.495 20552 bytes 243057 bytes 00:00:51.134
4 0:00:54.179 0:00:07.382 1372 kbps 2448 kbps 00:00:54.179 1484 kbps 00:00:56.055 0 kbps 00:00:00.000 7153 bytes 85793 bytes 00:00:54.262
5 0:01:01.561 0:00:01.000 112 kbps 0 kbps 00:00:00.000 0 kbps 00:00:00.000 0 kbps 00:00:00.000 611 bytes 833 bytes 00:01:01.728

STREAM DIAGNOSTICS:

File PID Type Codec Language Seconds Bitrate Bytes Packets
---- --- ---- ----- -------- -------------- -------------- ------------- -----
00000.M2TS 4113 (0x1011) 0x1B AVC 30.906 6763 26126326 142389
00000.M2TS 4352 (0x1100) 0x81 AC3 jpn (Japanese) 30.906 193 745728 4855
00001.M2TS 4113 (0x1011) 0x1B AVC 5.881 1446 1063074 5913
00001.M2TS 4352 (0x1100) 0x81 AC3 jpn (Japanese) 5.881 196 144384 940
00002.M2TS 4113 (0x1011) 0x1B AVC 18.393 4019 9239512 50473
00002.M2TS 4352 (0x1100) 0x81 AC3 jpn (Japanese) 18.393 193 444672 2895
00003.M2TS 4113 (0x1011) 0x1B AVC 6.882 1125 967957 5376
00003.M2TS 4352 (0x1100) 0x81 AC3 jpn (Japanese) 6.882 196 168192 1095
<pre>
<---- END FORUMS PASTE ---->

QUICK SUMMARY:

Disc Title: Sen to Chihiro no Kamikakushi Disc 1Disc Size: 41 545 331 474 bytesProtection: AACSBD-Java: NoPlaylist: 00000.MPLSSize: 41 496 576 bytesLength: 0:01:02.562Total Bitrate: 5.31 MbpsVideo: MPEG-4 AVC Video / 4782 kbps / 1080p / 23.976 fps / 16:9 / High Profile 4.1Audio: Japanese / Dolby Digital Audio / 2.0 / 48 kHz / 192 kbps
</pre>
[url]...4889222[/url]
[url]...4884288[/url]
[url]...4785563[/url]
[url]...4774199[/url]
[url]...3449920[/url]
[url]...4855444[/url]
[url]...4786545[/url]
- Blu-ray
GHIBLI GA IPPAI COLLECTION

1ST WAVE - 2010
07/14/2010 [url=...4629918] [/url] (1984)
12/22/2010 [url=...3690943] [/url] (1986)
12/22/2010 [url=...4119317] [/url] (1999)

2ND WAVE - 2011
06/17/2011 (2010)
07/20/2011 [url=...4178733]ظ [/url] (1995)

3RD WAVE - 2011
11/16/2011 [url=...3875703] [/url] (2004)
11/16/2011 [url=...4465304] [/url] (2006)
11/16/2011 [] (2008)

4TH WAVE - 2012
06/20/2012 (2011)
07/18/2012 [url=...4766434] [/url] (1988)
07/18/2012 [url=...4651642] [/url] (1988)

5TH WAVE - 2012
12/04/2012 [url=...4901371] [/url] (1989)
12/04/2012 (1991)

6TH WAVE - 2013
07/17/2013 (1992)
11/06/2013 [url=...4936128] [/url] (1994)

7TH WAVE - 2013
12/04/2013 [url=...4851914] [/url] (1997)
12/04/2013 [url=...5006347] + [/url] (2002)

8TH WAVE - 2014
06/18/2014 (2013)
07/16/2014 [url=...5043266] [/url] (2001)
08/06/2014 III: [1080p] (1979)

9TH WAVE - 2014-2015
12/03/2014 [url=...4989310] [/url] (2013)
03/18/2015 (2014)
07/17/2015 (1993)

ORIGINAL BLU-RAY RELEASES

07/04/2007 [url=...2249223] [/url] (2007)
12/19/2007 [url=...4818346] : [/url] (2007)
07/03/2009 [url=...3692012] ""[/url] (2008)
11/17/2010 [Theatrical Feature] (2010)
05/21/2014 [url=...4929876] [/url] (2014)
07/02/2014 [url=...4979621] - [Complete Box Bonus Disc][/url] (2013)
10/27/2014 [url=...4978082]On Your Mark[/url] (1995)
07/17/2015 ! (1972)
07/17/2015 (1982)

NON-GHIBLI BLU-RAY RELEASES

07/25/2008 [url=...4722800] [/url] (1981)
07/25/2008 [url=...4612785] [/url] (1984)


 ·  , , FAQ-
:  [ 18--2015 00:30 ]

  

.torrent

.torrent 157 KB


: 55.53 GB
(hash) : 037a411cd5d591b95f17083b8752357d9ca411d8
:
··
...

Sen to Chihiro no Kamikakushi . !

!