Скачать порно через торрент American Gokkun 5 American Gokkun 5 UnionPeer.org бесплатно онлайн HD качество

Скачать новое порно 2015, 2014 новинки через торрент UnionPeer.org

Порно торрент бесплатно ЮнионПир.орг

Если у вас наблюдаются проблемы со скриншотами, переходом по ссылками, скачиванием торрентов - проблемы в блокировщике рекламы AdBlock. #хорошегоДня!


Статистика раздачи
Размер:  1.02 GB   |    Зарегистрирован:  2 года 1 месяц   |    .torrent скачан:  519 раз   |   
Раздают:  1  
   
Загрузка...
 
Автор Сообщение

Galfimbul

avatar Galfimbul


American Gokkun 5

[url=...978034]American Gokkun 5 DVD на Pornolab.net[/url]

Год производства: 2008 г.
Страна: США
Жанр: Bukkake, Blowjob.
Продолжительность: 01:11:43
Язык: Английский

Режиссер: Jim Powers
В ролях: Keeani Lei, Chelsie Rae, Melissa Julianna.

Описание: Весьма приличная картина на тему заливания девочек спермой. Мужиков реально много, а в конце, героине фильма предстоит выпить всё, что осталось в стакане, который предусмотрительно располагался возле подбородка.

Качество видео: DVDRip
Формат видео: MP4
Видео кодек: AVC H.264
Аудио кодек: AAC
Видео: 720х480 2000 kbsec 29.970fps
Аудио: AAC 45kbsec 2ch
<html>
<head><title>502 Bad Gateway</title></head>
<body bgcolor="white">
<center><h1>502 Bad Gateway</h1></center>
<hr><center>nginx/1.7.1</center>
</body>
</html>
General
Complete name : F:\American Gokkun 5_pornolab.net.mp4
Format : MPEG-4
Codec ID : M4V
File size : 1.02 GiB
Duration : 1h 11mn
Overall bit rate mode : Variable
Overall bit rate : 2 028 Kbps
Encoded date : UTC 2015-07-15 00:00:25
Tagged date : UTC 2015-07-15 00:00:25

Video
ID : 1
Format : AVC
Format/Info : Advanced Video Codec
Format profile : High@L4.1
Format settings, CABAC : Yes
Format settings, ReFrames : 4 frames
Codec ID : avc1
Codec ID/Info : Advanced Video Coding
Duration : 1h 11mn
Bit rate : 2 000 Kbps
Maximum bit rate : 2 611 Kbps
Width : 720 pixels
Height : 480 pixels
Display aspect ratio : 16:9
Original display aspect rat : 16:9
Frame rate mode : Constant
Frame rate : 29.970 fps
Standard : NTSC
Color space : YUV
Chroma subsampling : 4:2:0
Bit depth : 8 bits
Scan type : Progressive
Bits/(Pixel*Frame) : 0.193
Stream size : 1 015 MiB (98%)
Writing library : x264 core 146 r2538kMod 121396c
Encoding settings : cabac=1 / ref=3 / deblock=1:0:0 / analyse=0x3:0x113 / me=hex / subme=7 / psy=1 / fade_compensate=0.00 / psy_rd=1.00:0.00 / mixed_ref=1 / me_range=16 / chroma_me=1 / trellis=1 / 8x8dct=1 / cqm=0 / deadzone=21,11 / fast_pskip=1 / chroma_qp_offset=-2 / threads=18 / lookahead_threads=3 / sliced_threads=0 / nr=0 / decimate=1 / interlaced=0 / bluray_compat=0 / constrained_intra=0 / fgo=0 / bframes=3 / b_pyramid=2 / b_adapt=1 / b_bias=0 / direct=1 / weightb=1 / open_gop=0 / weightp=2 / keyint=250 / keyint_min=25 / scenecut=40 / intra_refresh=0 / rc_lookahead=40 / rc=2pass / mbtree=1 / bitrate=2000 / ratetol=1.0 / qcomp=0.60 / qpmin=0 / qpmax=69 / qpstep=4 / cplxblur=20.0 / qblur=0.5 / vbv_maxrate=2000 / vbv_bufsize=1000 / nal_hrd=none / filler=0 / ip_ratio=1.40 / aq=1:1.00
Encoded date : UTC 2015-07-15 00:00:25
Tagged date : UTC 2015-07-15 00:00:35

Audio
ID : 2
Format : AAC
Format/Info : Advanced Audio Codec
Format profile : LC
Codec ID : 40
Duration : 1h 11mn
Bit rate mode : Variable
Bit rate : 45.0 Kbps
Maximum bit rate : 61.7 Kbps
Channel(s) : 2 channels
Channel positions : Front: L R
Sampling rate : 48.0 KHz
Compression mode : Lossy
Stream size : 23.1 MiB (2%)
Encoded date : UTC 2015-07-14 23:49:24
Tagged date : UTC 2015-07-15 00:00:35


Трекер:  [ 15-Июл-2015 03:30 ]

  

Скачать .torrent

Размер .torrent файла 10 KB


Размер: 1.02 GB
Хэш (hash) релиза: a905654e9c68a0f50207674b2df5667e3d9446f3

Еще никто не оставлял запись к записи скачать торрент American Gokkun 5 American Gokkun 5 . Будь первым!

!Обратная связь