Скачать порно через торрент Pure Sexual Attraction 4 Чистая сексуального влечения 4 UnionPeer.org бесплатно онлайн HD качество

Скачать новое порно 2015, 2014 новинки через торрент UnionPeer.org

Порно торрент бесплатно ЮнионПир.орг

Если у вас наблюдаются проблемы со скриншотами, переходом по ссылками, скачиванием торрентов - проблемы в блокировщике рекламы AdBlock. #хорошегоДня!


Статистика раздачи
Размер:  1.18 GB   |    Зарегистрирован:  2 года 3 месяца   |    .torrent скачан:  415 раз   |   
Раздают:  1  
   
Загрузка...
 
Автор Сообщение

Galfimbul

avatar Galfimbul


Pure Sexual Attraction 4 / Чистая сексуального влечения 4

Год производства: 2015 г.
Страна: USA
Жанр: 18+ Teens, Gonzo, Passion
Язык: Английский

Студия: Pure Passion

В ролях: Sabrina Banks, Lily Love, Kelly Diamond, Kacy Lane, Veronica Radke, Tommy Gunn, Tyler Nixon, Danny Mountain, Ryan Mclane, Talon

Описание: Embark on a journey of pure sexual attraction as 5 beautiful young ladies are captured in 5 scenes that raise the bar for high definition erotica. Kelly Diamond, Kacy Lane, Veronica Radke, Lily Love and Sabrina Banks want nothing more than to satisfy their hunger for sex. Join them as they endulge in their deepest fantasies and leave you begging for more.
Video
ID : 1
Format : AVC
Format/Info : Advanced Video Codec
Format profile : High@L3.0
Format settings, CABAC : Yes
Format settings, ReFrames : 5 frames
Codec ID : avc1
Codec ID/Info : Advanced Video Coding
Duration : 20mn 41s
Bit rate : 1 000 Kbps
Width : 750 pixels
Height : 422 pixels
Display aspect ratio : 16:9
Original display aspect ratio : 16:9
Frame rate mode : Constant
Frame rate : 23.976 fps
Color space : YUV
Chroma subsampling : 4:2:0
Bit depth : 8 bits
Scan type : Progressive
Bits/(Pixel*Frame) : 0.132
Stream size : 146 MiB (88%)
Writing library : x264 core 120 r2146 bcd41db
Encoding settings : cabac=1 / ref=5 / deblock=1:0:0 / analyse=0x3:0x113 / me=umh / subme=8 / psy=1 / psy_rd=1.00:0.00 / mixed_ref=1 / me_range=16 / chroma_me=1 / trellis=1 / 8x8dct=1 / cqm=0 / deadzone=21,11 / fast_pskip=1 / chroma_qp_offset=-2 / threads=2 / sliced_threads=0 / nr=0 / decimate=1 / interlaced=0 / bluray_compat=0 / constrained_intra=0 / bframes=3 / b_pyramid=2 / b_adapt=2 / b_bias=0 / direct=3 / weightb=1 / open_gop=0 / weightp=2 / keyint=250 / keyint_min=23 / scenecut=40 / intra_refresh=0 / rc_lookahead=50 / rc=abr / mbtree=1 / bitrate=1000 / ratetol=1.0 / qcomp=0.60 / qpmin=0 / qpmax=69 / qpstep=4 / ip_ratio=1.40 / aq=1:1.00
Language : English
Encoded date : UTC 2014-04-16 18:16:28
Tagged date : UTC 2014-04-16 18:16:28

Audio
ID : 2
Format : AAC
Format/Info : Advanced Audio Codec
Format profile : LC
Codec ID : 40
Duration : 20mn 41s
Bit rate mode : Constant
Bit rate : 128 Kbps
Channel(s) : 2 channels
Channel positions : Front: L R
Sampling rate : 44.1 KHz
Compression mode : Lossy
Delay relative to video : -100ms
Stream size : 18.9 MiB (11%)
Language : English
Разбит на эпизоды: Да
Качество видео: WEB-DL
Формат видео: MP4
Видео: MPEG4 Video (H264) 750x422 23.98fps
Аудио: AAC 44100Hz stereo 1411kbps

Трекер:  [ 13-Июл-2015 15:30 ]

  

Скачать .torrent

Размер .torrent файла 48 KB


Размер: 1.18 GB
Хэш (hash) релиза: 7366b2e27561bcbf9211cad0fafd033a2c6311fd

Еще никто не оставлял запись к записи скачать торрент Pure Sexual Attraction 4 Чистая сексуального влечения 4 . Будь первым!

!Обратная связь