Скачать порно через торрент Unfaithful Wives Vol. 4 Неверных жен Том. 4 UnionPeer.org бесплатно онлайн HD качество

Скачать новое порно 2015, 2014 новинки через торрент UnionPeer.org

Порно торрент бесплатно ЮнионПир.орг

Если у вас наблюдаются проблемы со скриншотами, переходом по ссылками, скачиванием торрентов - проблемы в блокировщике рекламы AdBlock. #хорошегоДня!


Статистика раздачи
Размер:  1.55 GB   |    Зарегистрирован:  2 года 4 месяца   |    .torrent скачан:  325 раз   |   
Раздают:  1  
   
Загрузка...
 
Автор Сообщение

Galfimbul

avatar Galfimbul


Unfaithful Wives Vol. 4 / Неверных жен Том. 4

Год производства: 2015 г.
Страна: USA
Жанр: Affairs & Love Triangles, Gonzo, Wives
Студия: PornPros

В ролях: Ava Addams, Nina Elle, Alana Luv, McKenzie Lee - (bio), Riley Jenner

Описание: She tells her husband she''s at the gym or out with her girlfriends, but she''s really sneaking off to a secret rendevous with some young, hard cock! 5 horny, married women with sexual urges are not going to let a little thing like a wedding ring hold them back!
Video
ID : 1
Format : AVC
Format/Info : Advanced Video Codec
Format profile : Baseline@L3.1
Format settings, CABAC : No
Format settings, ReFrames : 5 frames
Codec ID : avc1
Codec ID/Info : Advanced Video Coding
Duration : 30mn 36s
Bit rate : 1 846 Kbps
Width : 852 pixels
Height : 480 pixels
Display aspect ratio : 16:9
Original display aspect ratio : 16:9
Frame rate mode : Constant
Frame rate : 23.976 fps
Color space : YUV
Chroma subsampling : 4:2:0
Bit depth : 8 bits
Scan type : Progressive
Bits/(Pixel*Frame) : 0.188
Stream size : 404 MiB (93%)
Writing library : x264 core 142 r2431 a5831aa
Encoding settings : cabac=0 / ref=5 / deblock=1:0:0 / analyse=0x1:0x111 / me=umh / subme=8 / psy=1 / psy_rd=1.00:0.00 / mixed_ref=1 / me_range=16 / chroma_me=1 / trellis=1 / 8x8dct=0 / cqm=0 / deadzone=21,11 / fast_pskip=1 / chroma_qp_offset=-2 / threads=2 / lookahead_threads=1 / sliced_threads=0 / nr=0 / decimate=1 / interlaced=0 / bluray_compat=0 / constrained_intra=0 / bframes=0 / weightp=0 / keyint=250 / keyint_min=23 / scenecut=40 / intra_refresh=0 / rc_lookahead=50 / rc=crf / mbtree=1 / crf=18.0 / qcomp=0.60 / qpmin=0 / qpmax=69 / qpstep=4 / ip_ratio=1.40 / aq=1:1.00
Language : English

Audio
ID : 2
Format : AAC
Format/Info : Advanced Audio Codec
Format profile : LC
Codec ID : 40
Duration : 30mn 36s
Duration_LastFrame : -15ms
Bit rate mode : Constant
Bit rate : 128 Kbps
Channel(s) : 2 channels
Channel positions : Front: L R
Sampling rate : 44.1 KHz
Compression mode : Lossy
Stream size : 28.0 MiB (6%)
Language : English
Разбит на эпизоды: Да
Качество видео: WEB-DL
Формат видео: MP4
Видео: MPEG4 Video (H264) 852x480 (16:9) 23.98fps
Аудио: AAC 44100Hz stereo 1411kbps
<html>
<head><title>502 Bad Gateway</title></head>
<body bgcolor="white">
<center><h1>502 Bad Gateway</h1></center>
<hr><center>nginx/1.7.1</center>
</body>
</html>
<html>
<head><title>502 Bad Gateway</title></head>
<body bgcolor="white">
<center><h1>502 Bad Gateway</h1></center>
<hr><center>nginx/1.7.1</center>
</body>
</html>


Трекер:  [ 13-Июл-2015 15:30 ]

  

Скачать .torrent

Размер .torrent файла 63 KB


Размер: 1.55 GB
Хэш (hash) релиза: 38b39bddf9383ebe677c38839c189020c93fd9f8

Еще никто не оставлял запись к записи скачать торрент Unfaithful Wives Vol. 4 Неверных жен Том. 4 . Будь первым!

!Обратная связь