Скачать порно через торрент Petite HD Porn Vol. 2 Маленькая HD порно Том. 2 UnionPeer.org бесплатно онлайн HD качество

Скачать новое порно 2015, 2014 новинки через торрент UnionPeer.org

Порно торрент бесплатно ЮнионПир.орг

Если у вас наблюдаются проблемы со скриншотами, переходом по ссылками, скачиванием торрентов - проблемы в блокировщике рекламы AdBlock. #хорошегоДня!


Статистика раздачи
Размер:  1022 MB   |    Зарегистрирован:  2 года 3 месяца   |    .torrent скачан:  356 раз   |   
Раздают:  1  
   
Загрузка...
 
Автор Сообщение

Galfimbul

avatar Galfimbul


Petite HD Porn Vol. 2 / Маленькая HD порно Том. 2

Год производства: 2015 г.
Страна: USA
Жанр: 18+ Teens, All Sex, Big Cocks, Small Tits,
Продолжительность: 02:00:00+
Язык: Английский

Студия: Nubiles-Porn

В ролях: Jessa Rhodes,Ava Taylor,Cassidy Klein,Marina Angel

Описание: Our girls are hand picked to ensure only the most attractive, extremely sexual petite models getting fucked by big dicks!
Video
ID : 1
Format : AVC
Format/Info : Advanced Video Codec
Format profile : Baseline@L3.0
Format settings, CABAC : No
Format settings, ReFrames : 2 frames
Codec ID : avc1
Codec ID/Info : Advanced Video Coding
Duration : 14mn 36s
Bit rate : 1 044 Kbps
Width : 640 pixels
Height : 360 pixels
Display aspect ratio : 16:9
Frame rate mode : Constant
Frame rate : 23.976 fps
Color space : YUV
Chroma subsampling : 4:2:0
Bit depth : 8 bits
Scan type : Progressive
Bits/(Pixel*Frame) : 0.189
Stream size : 109 MiB (93%)
Writing library : x264 core 142
Encoding settings : cabac=0 / ref=2 / deblock=1:0:0 / analyse=0x1:0x111 / me=umh / subme=8 / psy=1 / psy_rd=1.00:0.00 / mixed_ref=1 / me_range=16 / chroma_me=1 / trellis=1 / 8x8dct=0 / cqm=0 / deadzone=21,11 / fast_pskip=1 / chroma_qp_offset=-2 / threads=10 / lookahead_threads=1 / sliced_threads=0 / nr=0 / decimate=1 / interlaced=0 / bluray_compat=0 / constrained_intra=0 / bframes=0 / weightp=0 / keyint=130 / keyint_min=13 / scenecut=40 / intra_refresh=0 / rc_lookahead=50 / rc=crf / mbtree=1 / crf=20.0 / qcomp=0.60 / qpmin=0 / qpmax=69 / qpstep=4 / ip_ratio=1.40 / aq=1:1.00
Language : English

Audio
ID : 2
Format : AAC
Format/Info : Advanced Audio Codec
Format profile : LC
Codec ID : 40
Duration : 14mn 36s
Duration_LastFrame : -4ms
Bit rate mode : Variable
Bit rate : 77.1 Kbps
Maximum bit rate : 96.0 Kbps
Channel(s) : 2 channels
Channel positions : Front: L R
Sampling rate : 44.1 KHz
Compression mode : Lossy
Stream size : 8.06 MiB (7%)
Language : English
Разбит на эпизоды: Да
Качество видео: WEB-DL
Формат видео: MP4
Видео: MPEG4 Video (H264) 640x360 23.976fps
Аудио: AAC 44100Hz stereo 1411kbps

Трекер:  [ 13-Июл-2015 10:30 ]

  

Скачать .torrent

Размер .torrent файла 40 KB


Размер: 1022 MB
Хэш (hash) релиза: 55b70976bc760e4cfe56694c9a56191ad30d5f50

Еще никто не оставлял запись к записи скачать торрент Petite HD Porn Vol. 2 Маленькая HD порно Том. 2 . Будь первым!

!Обратная связь